Алиби / Оправданный / Frikjent / Сезон: 1 / Серии: 1-10 из 10 (Гер Хеннинг Хопланд, Руне Денстад Лангло, Сесиль А. Мосли) [2015, Норвегия, драма, детектив, HDRip] MVO (Sony) + Original

Ответить на тему
Статистика раздачи [Обновить пиров]
Размер:  5.4 GB   |    Зарегистрирован:  1 год 6 месяцев   |    Скачан:  2 раза
Сидеров:  25  [  0 KB/s  ]   Личеров:  4  [  0 KB/s  ]   Подробная статистика скачивающих
 
   
 
 
 
Автор Сообщение

chi5o.com

Создавать темы 20-Июн-2017 23:06

[Цитировать]

Алиби / Оправданный / Frikjent
Год выхода: 2015
Страна: Норвегия
Жанр: драма, детектив
Продолжительность: 00:45:00
Перевод: Профессиональный (многоголосый закадровый) Sony
Режиссёр: Гер Хеннинг Хопланд, Руне Денстад Лангло, Сесиль А. Мосли
В ролях: Николай Клеве Брок
Лена Эндре
Энн Марит Якобсен
Эллен Доррит Петерсен
Хенрик Рафаелсен
Тобиас Зантельман
Ингар Хельге Гимле
Сюзанна Бучер
Синневе Макоди Лунд
Фридтьов Сохейм
Описание: После успеха в Азии, бизнесмен Аксель Борген возвращается в свой родной город в Норвегии, чтобы сохранить местную фирму, несмотря то, что 20 лет назад он был приговорен, а затем оправдан за убийство своей школьной подруги.
Ссылка на предыдущие и альтернативные раздачи: [url=tracker.php?f=189,819,2366,842&nm=Frikjent]http://Torrentc/forum/tracker.php?f=189,819,2366,842&nm=Frikjent[/url]
Сэмпл: http://multi-up.com/1156215
Качество: HDRip
Формат файла: AVI
Видео: MPEG4, DivX 5, 720x400 (16:9), 25.000 fps, 1 306 Kbps (0.181 bit/pixel)
Аудио: AC-3, 48.0 KHz, 2 ch, 192 Kbps, CBR - русский
Аудио 2: AC-3, 48.0 KHz, 2 ch, 192 Kbps, CBR - норвежский
Субтитры: нет
Реклама:
нет

MediaInfo

Общее
Полное имя : M:\1x01 - Возвращение домой (Hjemkomsten).avi
Формат файла : AVI
Формат файла/Информация : Audio Video Interleave
Размер файла : 552 Мбайт
Продолжительность : 45 м.
Общий поток : 1705 Кбит/сек
Название фильма : Алиби (Оправданный). Сезон 1 / Frikjent. Sesong 1 (2015)
Программа кодирования : VirtualDubMod 1.5.10.2 (build 2540/release)
Библиотека кодирования : VirtualDubMod build 2540/release
Авторское право : miha2154
Видео
Идентификатор : 0
Формат файла : MPEG-4 Visual
Профиль формата : Advanced Simple@L5
Параметр BVOP формата : 1
Параметр QPel формата : Нет
Параметр GMC формата : Без точки перехода
Параметр матрицы формата : Выборочная
Идентификатор кодека : DX50
Идентификатор кодека/Подсказка : DivX 5
Продолжительность : 45 м.
Битрейт : 1306 Кбит/сек
Ширина : 720 пикселей
Высота : 400 пикселей
Соотношение сторон : 16:9
Частота кадров : 25,000 кадров/сек
Цветовое пространство : YUV
Субдискретизация насыщенности : 4:2:0
Битовая глубина : 8 бит
Тип развёртки : Прогрессивная
Метод сжатия : С потерями
Бит/(Пиксели*Кадры) : 0.181
Размер потока : 423 Мбайт (77%)
Библиотека кодирования : XviD 65
Аудио #1
Идентификатор : 1
Формат файла : AC-3
Формат файла/Информация : Audio Coding 3
Расширение режима : CM (complete main)
Параметр Endianness формата : Big
Идентификатор кодека : 2000
Продолжительность : 45 м.
Вид битрейта : Постоянный
Битрейт : 192 Кбит/сек
Каналы : 2 канала
Расположение каналов : Front: L R
Частота : 48,0 КГц
Частота кадров : 31,250 кадров/сек (1536 spf)
Метод сжатия : С потерями
Размер потока : 62,2 Мбайт (11%)
Выравнивание : Разделение по промежуткам
Продолжительность промежутка : 40 мс. (1,00 видеокадр)
Время предзагрузки промежутка : 500 мс.
Заголовок : Профессиональный (многоголосый закадровый) Sony
Аудио #2
Идентификатор : 2
Формат файла : AC-3
Формат файла/Информация : Audio Coding 3
Расширение режима : CM (complete main)
Параметр Endianness формата : Big
Идентификатор кодека : 2000
Продолжительность : 45 м.
Вид битрейта : Постоянный
Битрейт : 192 Кбит/сек
Каналы : 2 канала
Расположение каналов : Front: L R
Частота : 48,0 КГц
Частота кадров : 31,250 кадров/сек (1536 spf)
Метод сжатия : С потерями
Размер потока : 62,2 Мбайт (11%)
Выравнивание : Разделение по промежуткам
Продолжительность промежутка : 40 мс. (1,00 видеокадр)
Время предзагрузки промежутка : 500 мс.
Заголовок : Норвежский

Скриншоты




[chi5o.com]_t_5410145.torrent
Торрент: Зарегистрирован ·  [ 2017-06-20 23:06 ] ·  9f26ef7ffc3fa6cc87754eff4db1ca6838b26853

28 KB

Статус: проверено
Скачан: 2 раз
Размер: 5.4 GB
Оценка: 
(Голосов: 0)
Сказали спасибо: 0  Спасибо
Похожие темы
[Профиль]    [ЛС]
Показать сообщения:    
Ответить на тему

Текущее время: Сегодня 12:38

Часовой пояс: GMT + 7



Вы не можете начинать темы
Вы не можете отвечать на сообщения
Вы не можете редактировать свои сообщения
Вы не можете удалять свои сообщения
Вы не можете голосовать в опросах
Вы не можете прикреплять файлы к сообщениям
Вы можете скачивать файлы


Jeff Roy | Successful Education - 562 Words | HD The Darkest Minds