Алиби / Оправданный / Frikjent / Сезон: 2 / Серии: 1-8 из 8 (Гер Хеннинг Хопланд, Руне Денстад Лангло, Сесиль А. Мосли) [2016, Норвегия, драма, детектив, HDRip] MVO (Sony) + Original

Ответить на тему
Статистика раздачи [Обновить пиров]
Размер:  4.32 GB   |    Зарегистрирован:  1 год 6 месяцев   |    Скачан:  2 раза
Сидеров:  3  [  0 KB/s  ]   Подробная статистика скачивающих
 
   
 
 
 
Автор Сообщение

chi5o.com

Создавать темы 20-Июн-2017 23:06

[Цитировать]

Алиби / Оправданный / Frikjent
Год выхода: 2016
Страна: Норвегия
Жанр: драма, детектив
Продолжительность: 00:45:00
Перевод: Профессиональный (многоголосый закадровый) Sony
Режиссёр: Гер Хеннинг Хопланд, Руне Денстад Лангло, Сесиль А. Мосли
В ролях: Николай Клеве Брок
Лена Эндре
Энн Марит Якобсен
Эллен Доррит Петерсен
Хенрик Рафаелсен
Тобиас Зантельман
Ингар Хельге Гимле
Сюзанна Бучер
Синневе Макоди Лунд
Фридтьов Сохейм
Описание: После успеха в Азии, бизнесмен Аксель Борген возвращается в свой родной город в Норвегии, чтобы сохранить местную фирму, несмотря то, что 20 лет назад он был приговорен, а затем оправдан за убийство своей школьной подруги.
Доп.информация: За Источник: Torrentcи для рипов спасибо in3ganka
Ссылка на предыдущие и альтернативные раздачи: [url=tracker.php?f=189,819,2366,842&nm=Frikjent]http://Torrentc/forum/tracker.php?f=189,819,2366,842&nm=Frikjent[/url]
Сэмпл: http://multi-up.com/1157939
Качество: HDRip
Формат файла: AVI
Видео: MPEG4, DivX 5, 704x384 (16:9), 25.000 fps, 1 314 Kbps (0.194 bit/pixel))
Аудио: AC-3, 48.0 KHz, 2 ch, 192 Kbps, CBR - русский
Аудио 2: AC-3, 48.0 KHz, 2 ch, 192 Kbps, CBR - норвежский
Субтитры: нет
Реклама:
нет

MediaInfo

Общее
Полное имя : M:\2x01 - Исповедь (Tilstaelsen).avi
Формат файла : AVI
Формат файла/Информация : Audio Video Interleave
Размер файла : 553 Мбайт
Продолжительность : 45 м.
Общий поток : 1713 Кбит/сек
Название фильма : Алиби (Оправданный). Сезон 2 / Frikjent. Sesong 2 (2016)
Программа кодирования : VirtualDubMod 1.5.10.2 (build 2540/release)
Библиотека кодирования : VirtualDubMod build 2540/release
Авторское право : miha2154
Видео
Идентификатор : 0
Формат файла : MPEG-4 Visual
Профиль формата : Advanced Simple@L5
Параметр BVOP формата : 1
Параметр QPel формата : Нет
Параметр GMC формата : Без точки перехода
Параметр матрицы формата : Выборочная
Идентификатор кодека : DX50
Идентификатор кодека/Подсказка : DivX 5
Продолжительность : 45 м.
Битрейт : 1314 Кбит/сек
Ширина : 704 пикселя
Высота : 384 пикселя
Соотношение сторон : 1,85:1
Частота кадров : 25,000 кадров/сек
Цветовое пространство : YUV
Субдискретизация насыщенности : 4:2:0
Битовая глубина : 8 бит
Тип развёртки : Прогрессивная
Метод сжатия : С потерями
Бит/(Пиксели*Кадры) : 0.194
Размер потока : 424 Мбайт (77%)
Библиотека кодирования : XviD 65
Аудио #1
Идентификатор : 1
Формат файла : AC-3
Формат файла/Информация : Audio Coding 3
Расширение режима : CM (complete main)
Параметр Endianness формата : Big
Идентификатор кодека : 2000
Продолжительность : 45 м.
Вид битрейта : Постоянный
Битрейт : 192 Кбит/сек
Каналы : 2 канала
Расположение каналов : Front: L R
Частота : 48,0 КГц
Частота кадров : 31,250 кадров/сек (1536 spf)
Метод сжатия : С потерями
Размер потока : 61,9 Мбайт (11%)
Выравнивание : Разделение по промежуткам
Продолжительность промежутка : 40 мс. (1,00 видеокадр)
Время предзагрузки промежутка : 500 мс.
Заголовок : Профессиональный (многоголосый закадровый) Sony
Аудио #2
Идентификатор : 2
Формат файла : AC-3
Формат файла/Информация : Audio Coding 3
Расширение режима : CM (complete main)
Параметр Endianness формата : Big
Идентификатор кодека : 2000
Продолжительность : 45 м.
Вид битрейта : Постоянный
Битрейт : 192 Кбит/сек
Каналы : 2 канала
Расположение каналов : Front: L R
Частота : 48,0 КГц
Частота кадров : 31,250 кадров/сек (1536 spf)
Метод сжатия : С потерями
Размер потока : 61,9 Мбайт (11%)
Выравнивание : Разделение по промежуткам
Продолжительность промежутка : 40 мс. (1,00 видеокадр)
Время предзагрузки промежутка : 500 мс.
Заголовок : Норвежский

Скриншоты




[chi5o.com]_t_5416660.torrent
Торрент: Зарегистрирован ·  [ 2017-06-20 23:06 ] ·  c44e21e29e3d9b62fa3d11a3a7321d9995599bfa

23 KB

Статус: проверено
Скачан: 2 раз
Размер: 4.32 GB
Оценка: 
(Голосов: 0)
Сказали спасибо: 0  Спасибо
Похожие темы
[Профиль]    [ЛС]
Показать сообщения:    
Ответить на тему

Текущее время: Сегодня 13:06

Часовой пояс: GMT + 7



Вы не можете начинать темы
Вы не можете отвечать на сообщения
Вы не можете редактировать свои сообщения
Вы не можете удалять свои сообщения
Вы не можете голосовать в опросах
Вы не можете прикреплять файлы к сообщениям
Вы можете скачивать файлы


State of Affairs | Most Watched | Jinhao 51A Acrylic/Wood Fountain Pen Hooded Iridium Extra Fine 0.38/0.5mm Nibs