Валландер / Wallander (SE) / Сезон: 1-3 из 3 / Серии: 1-32 из 32 (Кйел-Аке Андерсон, Йорн Фаурсчоу, Стефан Апелгрен, Андерс Энгстрем) [2005-2013, Швеция, детектив, BDRip] MVO (ТПО Ред Медиа)

Ответить на тему
Статистика раздачи [Обновить пиров]
Размер:  46.6 GB   |    Зарегистрирован:  1 год 10 месяцев   |    Скачан:  0 раз

Полного источника не было: Никогда

 
   
 
 
 
Автор Сообщение

chi5o.com

Создавать темы 14-Мар-2017 10:00

[Цитировать]

Валландер / Wallander (SE)
Год выхода: 2005 - 2013
Страна: Швеция
Жанр: детектив
Продолжительность: 01:28:25
Перевод: Профессиональный (многоголосый закадровый) - ТПО Ред Медиа

Режиссёр: Кйел-Аке Андерсон, Йорн Фаурсчоу, Стефан Апелгрен, Андерс Энгстрем
В ролях: Кристер Хенрикссон, Фредерик Гуннарссон, Матс Бергман, Дуглас Йоханссон, Марианне Мёрк, Стина Экблад, Юханна Селльстрём, Лена Эндре, Ола Рапас, Сверрир Гуднасон
Описание: Комиссар полиции Курт Валландер — впечатлительный и упрямый мизантроп, который ест мало, спит нерегулярно, зато много пьёт и слушает оперную музыку. Он резок и использует нестандартные методы работы. Он полагается на свои собственные инстинкты и опыт и не брезгует незаконными способами раскрытия преступлений. И даже его дочь Линда, работающая вместе с ним, не всегда способна его понять.
Ссылка на предыдущие и альтернативные раздачи
Сэмпл
Качество: BDRip [Wallander_SE_Blu-Ray_Remux_(1080p)]
Формат файла: AVI
Видео: 704x400 (1.76:1), 25 fps, XviD build 73 ~2153 kbps avg, 0.31 bit/pixel
Аудио: 48 kHz, AC3 Dolby Digital, 2/0 (L,R) ch, ~192 kbps
Субтитры: отсутствуют

MediaInfo

General
Complete name : H:\Сериалы в работе\Wallander_SE_2005-2013.bdrip_[teko]\Season_01\s01e01_Innan.frosten.avi
Format : AVI
Format/Info : Audio Video Interleave
File size : 1.45 GiB
Duration : 1h 28mn
Overall bit rate : 2 355 Kbps
Writing application : VirtualDubMod 1.5.10.3 | www.virtualdub-fr.org || (build 2550/release)
Writing library : VirtualDubMod build 2550/release
Video
ID : 0
Format : MPEG-4 Visual
Format profile : Advanced Simple@L5
Format settings, BVOP : 2
Format settings, QPel : No
Format settings, GMC : No warppoints
Format settings, Matrix : Custom
Codec ID : XVID
Codec ID/Hint : XviD
Duration : 1h 28mn
Bit rate : 2 154 Kbps
Width : 704 pixels
Height : 400 pixels
Display aspect ratio : 16:9
Frame rate : 25.000 fps
Color space : YUV
Chroma subsampling : 4:2:0
Bit depth : 8 bits
Scan type : Progressive
Compression mode : Lossy
Bits/(Pixel*Frame) : 0.306
Stream size : 1.33 GiB (91%)
Writing library : XviD 73
Audio
ID : 1
Format : AC-3
Format/Info : Audio Coding 3
Mode extension : CM (complete main)
Format settings, Endianness : Big
Codec ID : 2000
Duration : 1h 28mn
Bit rate mode : Constant
Bit rate : 192 Kbps
Channel(s) : 2 channels
Channel positions : Front: L R
Sampling rate : 48.0 KHz
Frame rate : 31.250 fps (1536 spf)
Compression mode : Lossy
Stream size : 121 MiB (8%)
Alignment : Split accross interleaves
Interleave, duration : 40 ms (1.00 video frame)
Interleave, preload duratio : 500 ms
:
-
-


[chi5o.com]_t_5366943.torrent
Торрент: Зарегистрирован ·  [ 2017-03-14 10:00 ] ·  08561390e21952ef07a44ef709e7bab3bd24ccda

235 KB

Статус: проверено
Скачан: 0 раз
Размер: 46.6 GB
Оценка: 
(Голосов: 0)
Сказали спасибо: 0  Спасибо
Похожие темы
[Профиль]    [ЛС]
Показать сообщения:    
Ответить на тему

Текущее время: Сегодня 13:19

Часовой пояс: GMT + 7



Вы не можете начинать темы
Вы не можете отвечать на сообщения
Вы не можете редактировать свои сообщения
Вы не можете удалять свои сообщения
Вы не можете голосовать в опросах
Вы не можете прикреплять файлы к сообщениям
Вы можете скачивать файлы


└ Livres, BD, revues | Mekakucity Actors BD Subtitle Indonesia | Mariah Plus - March 2018