Охотник и жертва / Mannaveiðar / I Hunt Men / Сезон: 1 / Серии: 1-4 из 4 (Бьёрн Бьёрнссон / Björn Björnsson) [2008, Исландия, детектив, DVDRip-AVC] VO (Web Money)

Ответить на тему
Статистика раздачи [Обновить пиров]
Размер:  2.34 GB   |    Зарегистрирован:  1 год 10 месяцев   |    Скачан:  2 раза
Сидеров:  3  [  0 KB/s  ]   Личеров:  1  [  0 KB/s  ]   Подробная статистика скачивающих
 
   
 
 
 
Автор Сообщение

chi5o.com

Создавать темы 07-Мар-2017 23:06

[Цитировать]

Охотник и жертва / Mannaveiðar / I Hunt Men
Год выхода: 2008
Страна: Исландия
Жанр: детектив
Продолжительность: 170
Перевод: Любительский (одноголосый закадровый) Project_Web_Money
Режиссёр: Бьёрн Бьёрнссон / Björn Björnsson
В ролях: Оулавюр Дарри Оулафссон, Гисли Орн Гардарссон, Шарлотта Бёвинг, Лейвей Элиасдоуттир, Хильмир Снэр Гуднасон, Бьёрн Торс, Дарри Ингольфссон, Атли Рабн Сигурдссон, Хадла Вильяульмсдоуттир
Описание: Однажды ранним утром охотник вышел пострелять белых куропаток, но неожиданно над его головой прозвучал выстрел, затем еще один и еще один, целая очередь выстрелов. Охотник превратился в жертву. Вскоре обнаруживают труп и на место прибывает полиция. Начинается расследование — его ведут двое исландцев: Гуннар, живущий с матерью и любящий перекусить, и Хинрик, педантичный и дотошный детектив, предочитающий жить один в стильно обставленном доме. Им предстоит узнать, кто затеял охоту на человека...
Монтаж,спонсирование и сведение звука: лорди74
Ссылка на предыдущие и альтернативные раздачи: [url=tracker.php?f=189,2366,842,819&nm=Mannavei]http://torrentc/forum/tracker.php?f=189,2366,842,819&nm=Mannavei[/url]
Сэмпл: http://multi-up.com/1028403
Качество: DVDRip
Формат файла: MKV
Видео: H.264, 720x576@1024x576, 25 fps, 1798 kbps 0.173 bit/pixel
Аудио: AC3, 48 kHz, 2 ch, 192 kbps VO Web_Money
Субтитры: отсутствуют

Внимание! Раздача ведётся путём добавления новых серий

Внимание! Раздача ведётся путём добавления новых серий; при каждом добавлении создаётся новый торрент. Чтобы начать докачку новой серии, пользователям необходимо сделать следующее:
(1) остановить скачивание,
(2) удалить старый торрент у себя из клиента (старые серии удалять не надо),
(3) скачать новый торрент и запустить его у себя в клиенте вместо старого, при этом указать клиенту путь в старую папку куда и должно происходить скачивание новых серий.
Ваш клиент при этом должен произвести хеширование (проверку) старой папки (если не производит сам - помогите ему сделать это), и будет докачивать только те серии которых у вас ещё нет. Старые серии при этом не удаляются, а продолжают раздаваться!
Eсли вы уже удалили старые серии, то предотвратить повторную закачку старых серий можно, отжав галочку в соответствующих местах при запуске нового торрента. По возможности, желательно не удалять старые серии как можно дольше чтобы релизёр не столько продолжал раздавать старые серии, а смог сконцентрироваться на новых.

MediaInfo

ФИЛЬМЫ\Охотник и Жертва_2008_VO\01_serya_VO.mkv
Формат файла : Matroska
Версия формата : Version 2
Размер файла : 593 Мбайт
Продолжительность : 42 м.
Общий поток : 1962 Кбит/сек
Название фильма : =lord_i_74=
Дата кодирования : UTC 2015-01-23 17:25:52
Программа кодирования : mkvmerge v5.0.1 ('Es ist Sommer') built on Oct 9 2011 11:55:43
Библиотека кодирования : Lavf55.12.0
Видео
Идентификатор : 1
Формат файла : AVC
Формат файла/Информация : Advanced Video Codec
Профиль формата : High@L3.1
Параметр CABAC формата : Да
Параметр ReFrames формата : 9 кадров
Идентификатор кодека : V_MPEG4/ISO/AVC
Продолжительность : 42 м.
Битрейт : 1798 Кбит/сек
Ширина : 720 пикс.
Высота : 576 пикс.
Соотношение сторон : 16:9
Частота кадров : 25,000 кадр/сек
Стандарт вещания : PAL
Цветовое пространство : YUV
Подвыборка цветности : 4:2:0
Битовая глубина : 8 бит
Тип развёртки : Прогрессивная
Бит/(Пиксели*Кадры) : 0.173
Размер потока : 523 Мбайт (88%)
Библиотека кодирования : x264 core 142 r2479 dd79a61
Настройки программы : cabac=1 / ref=9 / deblock=1:-3:-3 / analyse=0x3:0x133 / me=umh / subme=9 / psy=1 / psy_rd=1.00:0.00 / mixed_ref=1 / me_range=24 / chroma_me=1 / trellis=2 / 8x8dct=1 / cqm=0 / deadzone=21,11 / fast_pskip=0 / chroma_qp_offset=-2 / threads=6 / lookahead_threads=1 / sliced_threads=0 / nr=0 / decimate=1 / interlaced=0 / bluray_compat=0 / constrained_intra=0 / bframes=6 / b_pyramid=2 / b_adapt=2 / b_bias=0 / direct=3 / weightb=1 / open_gop=0 / weightp=2 / keyint=250 / keyint_min=25 / scenecut=40 / intra_refresh=0 / rc_lookahead=60 / rc=abr / mbtree=1 / bitrate=1798 / ratetol=1.0 / qcomp=0.60 / qpmin=0 / qpmax=69 / qpstep=4 / ip_ratio=1.40 / aq=2:1.00
Основные цвета : BT.470-6 System B, BT.470-6 System G, BT.601-6 625, BT.1358 625, BT.1700 625 PAL, BT.1700 625 SECAM
Характеристики трансфера : BT.709-5, BT.1361
Коэффициенты матрицы : BT.601-6 525, BT.1358 525, BT.1700 NTSC, SMPTE 170M
Default : Да
Forced : Нет
Аудио
Идентификатор : 2
Формат файла : AC-3
Формат файла/Информация : Audio Coding 3
Расширение режима : CM (complete main)
Идентификатор кодека : A_AC3
Продолжительность : 42 м.
Вид битрейта : Постоянный
Битрейт : 192 Кбит/сек
Каналы : 2 канала
Расположение каналов : Front: L R
Частота : 48,0 КГц
Битовая глубина : 16 бит
Метод сжатия : С потерями
Задержка видео : -80 мс.
Размер потока : 58,0 Мбайт (10%)
Заголовок : VO Web_Money
Язык : Russian
Default : Да
Forced : Нет

Скриншоты

20.02.2015 Торент файл перезалит. Причина : Добавление 4-ой серии.Финал сериала!!!


[chi5o.com]_t_4922341.torrent
Торрент: Зарегистрирован ·  [ 2017-03-07 23:06 ] ·  ab156d65bf8fe4eb1ee6ae9eb35a86588bbc8e44

12 KB

Статус: проверено
Скачан: 2 раз
Размер: 2.34 GB
Оценка: 
(Голосов: 0)
Сказали спасибо: 0  Спасибо
Похожие темы
[Профиль]    [ЛС]
Показать сообщения:    
Ответить на тему

Текущее время: Сегодня 12:46

Часовой пояс: GMT + 7



Вы не можете начинать темы
Вы не можете отвечать на сообщения
Вы не можете редактировать свои сообщения
Вы не можете удалять свои сообщения
Вы не можете голосовать в опросах
Вы не можете прикреплять файлы к сообщениям
Вы можете скачивать файлы


Superfly | Shounen ai | Résine Polyester iso 1KG