Прибытие / Arrival (Дени Вильнёв / Denis Villeneuve) [2016, научная фантастика, драма, BDRip] дополнительные материалы

Ответить на тему
Статистика раздачи [Обновить пиров]
Размер:  7.3 GB   |    Зарегистрирован:  10 дней   |    Скачан:  0 раз

Полного источника не было: Никогда

 
   
 
 
 
Автор Сообщение

chi5o.com

Создавать темы 06-Фев-2019 23:08

[Цитировать]

Прибытие / Arrival
Тип раздаваемого материала: дополнительные материалы
Год выхода фильма: 2016
Страна: США
Жанр: научная фантастика, драма
Продолжительность: 01:22:02
Перевод: Субтитры (AphalinaS)
Русские субтитры: есть
Режиссер: Дени Вильнёв / Denis Villeneuve
В ролях: Эми Адамс, Джереми Реннер, Майкл Стулбарг, Форест Уитакер, Сангита Патель, Марк О’Брайэн, Эбигейл Пнёвски, Ци Ма, Натали Тибо, Рут Чианг, Анана Ридвальд, Расселл Юэнь, Фрэнк Фиола, Ларри Дэй, Пэт Кили, Джо Кобден, Джулиан Кэйси, Эндрю Шэйвер, Макс Уолкер, Кристиан Джада, Женевьева Сироис, Мустафа Хайдари, Кэтлин Ставерт, Шон Кэмпбелл
Описание: Неожиданное появление неопознанных летающих объектов в разных точках планеты повергает мир в трепет. Намерения пришельцев не ясны — вооруженные силы всего мира приведены в полную боевую готовность, а лучшие умы человечества пытаются понять, как разговаривать с непрошенными гостями. Правительство обращается за помощью к лингвисту Луизе Бэнкс и физику Яну Доннели, чтобы предотвратить глобальную катастрофу и найти общий язык с пришельцами. Отныне судьба человечества находится в их руках.
Качество: BDRip
Формат файла: MKV
Видео кодек: H264
Аудио кодек: AC3
Формат файла субтитров: SRT
Видео: H264, 1920x1080 (16:9), 23,976 fps, High Profile 4.1, 12-30 kbps
Аудио: Eng, AC3, 48 kHz, 2/0 (L,R), 192 kbps

Состав раздачи:

1. Ксенолингвистика. Осознание прибытия.
2. Постоянное повторение. Саундтрек.
3. Акустические образы. Звуковой дизайн.
4. Непрямолинейное мышление. Процесс монтажа.
5. Принципы времени, памяти, языка.

Скриншоты

MediaInfo:

Общее
Уникальный идентификатор : 202267451310343839716614156998642198993 (0x982B4B4BCC7DEAE5B4E1E45E7D7369D1)
Полное имя : D:\Раздачи\Прибытие. Бонусы\Arrival. Bonuses\1. Кснолингвистика. Осознание прибытия.mkv
Формат файла : Matroska
Версия формата : Version 4 / Version 2
Размер файла : 2,65 Гбайт
Продолжительность : 30 м. 2 с.
Режим общего битрейта : Переменный
Общий поток : 12,6 Мбит/сек
Дата кодирования : UTC 2019-01-26 17:28:31
Программа кодирования : mkvmerge v8.3.0 ('Over the Horizon') 32bit
Библиотека кодирования : libebml v1.3.1 + libmatroska v1.4.2
Видео
Идентификатор : 1
Формат файла : AVC
Формат файла/Информация : Advanced Video Codec
Профиль формата : High@L4.1
Настройки формата : CABAC / 4 Ref Frames
Параметр CABAC формата : Да
Параметр RefFrames формата : 4 кадра
Идентификатор кодека : V_MPEG4/ISO/AVC
Продолжительность : 30 м. 2 с.
Вид битрейта : Переменный
Битрейт : 12,4 Мбит/сек
Максимальный битрейт : 30,0 Мбит/сек
Ширина : 1920 пикселей
Высота : 1080 пикселей
Соотношение сторон : 16:9
Режим частоты кадров : Постоянный
Частота кадров : 23,976 (24000/1001) кадра/сек
Стандарт вещания : NTSC
Цветовое пространство : YUV
Субдискретизация насыщенности : 4:2:0
Битовая глубина : 8 бит
Тип развёртки : Прогрессивная
Бит/(Пиксели*Кадры) : 0.250
Размер потока : 2,61 Гбайт (98%)
Default : Да
Forced : Нет
Цветовой диапазон : Limited
Основные цвета : BT.709
Характеристики трансфера : BT.709
Коэффициенты матрицы : BT.709
Аудио
Идентификатор : 2
Формат файла : AC-3
Формат файла/Информация : Audio Coding 3
Идентификатор кодека : A_AC3
Продолжительность : 30 м. 2 с.
Вид битрейта : Постоянный
Битрейт : 192 Кбит/сек
Каналы : 2 канала
Расположение каналов : Front: L R
Частота : 48,0 КГц
Частота кадров : 31,250 кадров/сек (1536 SPF)
Битовая глубина : 16 бит
Метод сжатия : С потерями
Размер потока : 41,3 Мбайт (2%)
Язык : English
ServiceKind/String : Complete Main
Default : Да
Forced : Нет
Текст
Идентификатор : 3
Формат файла : UTF-8
Идентификатор кодека : S_TEXT/UTF8
Идентификатор кодека/Информация : UTF-8 Plain Text
Продолжительность : 28 м. 52 с.
Битрейт : 194 бит/сек
ElementCount : 528
Размер потока : 41,1 Кбайт (0%)
Язык : Russian
Default : Да
Forced : Да


[chi5o.com]_t_5682041.torrent
Торрент: Зарегистрирован ·  [ 2019-02-06 23:06 ] ·  1a6785b65b214b74f05ef6930e7f0ba4a3bd5426

37 KB

Статус: проверено
Скачан: 0 раз
Размер: 7.3 GB
Оценка: 
(Голосов: 0)
Сказали спасибо: 0  Спасибо
Похожие темы
[Профиль]    [ЛС]
Показать сообщения:    
Ответить на тему

Текущее время: Сегодня 10:54

Часовой пояс: GMT + 7



Вы не можете начинать темы
Вы не можете отвечать на сообщения
Вы не можете редактировать свои сообщения
Вы не можете удалять свои сообщения
Вы не можете голосовать в опросах
Вы не можете прикреплять файлы к сообщениям
Вы можете скачивать файлы


Tigi Chat :Public Chat social | Un Inquilino Peligroso | Britains Brightest Family S2E1 Episode 1