[TR24][OF] Runeshard - Dreaming Spire - 2018 (Melodic death metal)

Ответить на тему
Статистика раздачи [Обновить пиров]
Размер:  203 MB   |    Зарегистрирован:  11 дней   |    Скачан:  0 раз

Полного источника не было: Никогда

 
   
 
 
 
Автор Сообщение

chi5o.com

Создавать темы 06-Фев-2019 01:13

[Цитировать]

Runeshard / Dreaming Spire
Формат файла записи/Источник записи: [TR24][OF]
Жанр: Melodic death metal
Носитель: WEB http://runeshard.bandcamp.com/releases
Год издания: 2018
Страна исполнителя (группы): Hungary
Аудиокодек: FLAC (*.flac)
Тип рипа: tracks
Продолжительность: 00:17:30
Источник: авторская раздача
Наличие сканов в содержимом раздачи: нет

(2018)Dreaming Spire

Tracklist:
01 The Coronation 01:55
02 Dreaming Spire 05:55
03 Crimson Gates 05:10
04 Atlantean Sword 04:28

Lossless-Audio-Checker

Lossless Audio Checker 2.0.7 logfile from Monday 04 February 2019 09:31:49 AM
File: O:\! TORRENT\Runeshard\03 Crimson Gates.flacResult: Clean
File: O:\! TORRENT\Runeshard\04 Atlantean Sword.flacResult: Clean
File: O:\! TORRENT\Runeshard\01 The Coronation.flacResult: Clean
File: O:\! TORRENT\Runeshard\02 Dreaming Spire.flacResult: Clean

Frequency Spectrum Screenshot




Dynamic range measurement

foobar2000 1.4.1 / Dynamic Range Meter 1.1.1log date: 2019-02-04 12:16:58
--------------------------------------------------------------------------------Analyzed: Runeshard / Dreaming Spire--------------------------------------------------------------------------------
DR Peak RMS Duration Track--------------------------------------------------------------------------------DR11 -1.70 dB -16.99 dB 1:55 01-The CoronationDR9 -0.07 dB -10.45 dB 5:56 02-Dreaming SpireDR10 -0.08 dB -10.73 dB 5:10 03-Crimson GatesDR10 -0.07 dB -10.46 dB 4:29 04-Atlantean Sword--------------------------------------------------------------------------------
Number of tracks: 4Official DR value: DR10
Samplerate: 44100 HzChannels: 2Bits per sample: 24Bitrate: 1646 kbpsCodec: FLAC================================================================================
enjoy


[chi5o.com]_t_5684870.torrent
Торрент: Зарегистрирован ·  [ 2019-02-06 01:13 ] ·  19e4a21686e8b2deb770a7fe5b48c54d1156c041

17 KB

Статус: проверено
Скачан: 0 раз
Размер: 203 MB
Оценка: 
(Голосов: 0)
Сказали спасибо: 0  Спасибо
Похожие темы
[Профиль]    [ЛС]
Показать сообщения:    
Ответить на тему

Текущее время: Сегодня 10:53

Часовой пояс: GMT + 7



Вы не можете начинать темы
Вы не можете отвечать на сообщения
Вы не можете редактировать свои сообщения
Вы не можете удалять свои сообщения
Вы не можете голосовать в опросах
Вы не можете прикреплять файлы к сообщениям
Вы можете скачивать файлы


Play Store opnieuw downloaden op Android | [小鈴] EASYGOING! [DL版] | » Apostle 2018 720p WEBRip DD5.1 x264-BDP