The Windmill - Live With It! [2016, Symphonic Progressive Rock, BDRip, 720p]

Ответить на тему
Статистика раздачи [Обновить пиров]
Размер:  3.65 GB   |    Зарегистрирован:  12 дней   |    Скачан:  0 раз

Полного источника не было: Никогда

 
   
 
 
 
Автор Сообщение

chi5o.com

Создавать темы 04-Фев-2019 21:42

[Цитировать]

The Windmill - Live With It!
Жанр: Symphonic Progressive Rock
Продолжительность: 01:36:54
Год выхода: 2016
Треклист:
  • Cinnamon
  • Not Alone
  • The Masque
  • A Day In The Heroe's Life
  • Don't Be Afraid
  • Don't Be Afraid
  • The Gamer
  • Play With FireИсточник The Windmill - Live With It! [2016, Symphonic Progressive Rock, Blu-ray, 1080i]
    Качество: BDRip
    Разрешение видео/развертка: 720p
    Формат файла: MKV
    Видео кодек: H.264
    Аудио кодек: AC3
    Видео: AVC, 1280x720 (16:9), 25.000 fps, 5 200 Kbps
    Аудио: AC-3, 48.0 KHz, 2 ch, 192 Kbps

    MediaInfo / x264Logx264Log

    [Information] [21.01.2019 12:22:44] Standard error stream-[Information] [21.01.2019 12:22:59] y4m [info]: 1280x720p 1:1 @ 25/1 fps (cfr)-[Information] [21.01.2019 12:22:59] x264 [info]: using SAR=1/1-[Information] [21.01.2019 12:22:59] x264 [info]: using cpu capabilities: MMX2 SSE2Fast SSSE3 SSE4.2 AVX-[Information] [21.01.2019 12:22:59] x264 [info]: profile High, level 4.1, 4:2:0, 8-bit-[Information] [22.01.2019 2:28:28] x264 [info]: frame I:1079 Avg QP:16.59 size:166604-[Information] [22.01.2019 2:28:28] x264 [info]: frame P:29648 Avg QP:19.29 size: 56950-[Information] [22.01.2019 2:28:28] x264 [info]: frame B:114628 Avg QP:22.42 size: 16669-[Information] [22.01.2019 2:28:28] x264 [info]: consecutive B-frames: 1.1% 0.8% 6.5% 19.7% 19.9% 48.1% 2.7% 0.6% 0.6%-[Information] [22.01.2019 2:28:28] x264 [info]: mb I I16..4: 3.0% 69.3% 27.6%-[Information] [22.01.2019 2:28:28] x264 [info]: mb P I16..4: 1.2% 10.4% 1.6% P16..4: 33.5% 36.4% 12.1% 1.9% 0.3% skip: 2.5%-[Information] [22.01.2019 2:28:28] x264 [info]: mb B I16..4: 0.2% 1.3% 0.1% B16..8: 32.7% 16.6% 2.6% direct:13.9% skip:32.6% L0:43.3% L1:41.0% BI:15.6%-[Information] [22.01.2019 2:28:28] x264 [info]: 8x8 transform intra:77.4% inter:64.8%-[Information] [22.01.2019 2:28:28] x264 [info]: direct mvs spatial:98.9% temporal:1.1%-[Information] [22.01.2019 2:28:28] x264 [info]: coded y,uvDC,uvAC intra: 79.7% 91.3% 71.3% inter: 30.7% 46.8% 14.8%-[Information] [22.01.2019 2:28:28] x264 [info]: i16 v,h,dc,p: 19% 16% 8% 58%-[Information] [22.01.2019 2:28:28] x264 [info]: i8 v,h,dc,ddl,ddr,vr,hd,vl,hu: 7% 8% 7% 9% 14% 13% 15% 12% 16%-[Information] [22.01.2019 2:28:28] x264 [info]: i4 v,h,dc,ddl,ddr,vr,hd,vl,hu: 9% 9% 5% 9% 14% 13% 14% 11% 15%-[Information] [22.01.2019 2:28:28] x264 [info]: i8c dc,h,v,p: 40% 22% 18% 20%-[Information] [22.01.2019 2:28:28] x264 [info]: Weighted P-Frames: Y:21.3% UV:15.2%-[Information] [22.01.2019 2:28:28] x264 [info]: ref P L0: 44.0% 10.4% 17.1% 6.7% 6.1% 4.4% 4.6% 2.7% 3.4% 0.7% 0.0%-[Information] [22.01.2019 2:28:28] x264 [info]: ref B L0: 78.6% 9.4% 4.5% 2.5% 1.9% 1.6% 1.0% 0.4%-[Information] [22.01.2019 2:28:28] x264 [info]: ref B L1: 96.0% 4.0%-[Information] [22.01.2019 2:28:28] x264 [info]: kb/s:5199.66-[Information] [22.01.2019 2:28:28] encoded 145355 frames, 2.87 fps, 5199.66 kb/s
    GeneralUnique ID : 15750150767109922435229459469426058080 (0xBD95E63106C863D09896A3B55A96360)Complete name : K:\The Windmill - Live With It!BDRip720p.mkvFormat : MatroskaFormat version : Version 2File size : 3.65 GiBDuration : 1 h 36 minOverall bit rate : 5 394 kb/sMovie name : The Windmill - Live With It!BDRip720p @ TorrentcEncoded date : UTC 2019-01-22 20:13:49Writing application : mkvmerge v30.0.0 ('Interstellar') 64-bitWriting library : libebml v1.3.6 + libmatroska v1.4.9
    VideoID : 1Format : AVCFormat/Info : Advanced Video CodecFormat profile : High@L4.1Format settings : CABAC / 9 Ref FramesFormat settings, CABAC : YesFormat settings, RefFrames : 9 framesCodec ID : V_MPEG4/ISO/AVCDuration : 1 h 36 minBit rate : 5 200 kb/sWidth : 1 280 pixelsHeight : 720 pixelsDisplay aspect ratio : 16:9Frame rate mode : ConstantFrame rate : 25.000 FPSColor space : YUVChroma subsampling : 4:2:0Bit depth : 8 bitsScan type : ProgressiveBits/(Pixel*Frame) : 0.226Stream size : 3.52 GiB (96%)Title : anbelk27 @ TorrentcWriting library : x264 core 157 r2935 545de2fEncoding settings : cabac=1 / ref=9 / deblock=1:-3:-3 / analyse=0x3:0x133 / me=umh / subme=11 / psy=1 / psy_rd=1.10:0.07 / mixed_ref=1 / me_range=32 / chroma_me=1 / trellis=2 / 8x8dct=1 / cqm=0 / deadzone=21,11 / fast_pskip=1 / chroma_qp_offset=-3 / threads=6 / lookahead_threads=1 / sliced_threads=0 / nr=0 / decimate=1 / interlaced=0 / bluray_compat=0 / constrained_intra=0 / bframes=8 / b_pyramid=2 / b_adapt=2 / b_bias=0 / direct=3 / weightb=1 / open_gop=0 / weightp=2 / keyint=250 / keyint_min=25 / scenecut=50 / intra_refresh=0 / rc_lookahead=120 / rc=2pass / mbtree=1 / bitrate=5200 / ratetol=1.0 / qcomp=0.60 / qpmin=0 / qpmax=69 / qpstep=4 / cplxblur=20.0 / qblur=0.5 / vbv_maxrate=50000 / vbv_bufsize=62500 / nal_hrd=none / filler=0 / ip_ratio=1.40 / aq=1:1.00Default : YesForced : No
    AudioID : 2Format : AC-3Format/Info : Audio Coding 3Commercial name : Dolby DigitalCodec ID : A_AC3Duration : 1 h 36 minBit rate mode : ConstantBit rate : 192 kb/sChannel(s) : 2 channelsChannel layout : L RSampling rate : 48.0 kHzFrame rate : 31.250 FPS (1536 SPF)Bit depth : 16 bitsCompression mode : LossyStream size : 133 MiB (4%)Title : AC3 2.0 @ 16 bitService kind : Complete MainDefault : YesForced : No
    Menu00:00:00.000 : en: 01. Cinnamon00:07:56.560 : en: 02. Not Alone00:17:20.600 : en: 03. The Masque00:41:15.960 : en: 04. A Day In The Heroe's Life00:53:55.680 : en: 05. --Don't Be Afraid--00:56:21.440 : en: 06. Don't Be Afraid01:05:55.800 : en: 07. The Gamer01:32:06.000 : en: 08. Play With Fire

    Скриншоты




    [chi5o.com]_t_5678526.torrent
    Торрент: Зарегистрирован ·  [ 2019-02-04 21:41 ] ·  09b56233921b6db764237509a2e1a4a1519c49

    19 KB

    Статус: проверено
    Скачан: 0 раз
    Размер: 3.65 GB
    Оценка: 
    (Голосов: 0)
    Сказали спасибо: 0  Спасибо
    Похожие темы
  • [Профиль]    [ЛС]
    Показать сообщения:    
    Ответить на тему

    Текущее время: Сегодня 10:51

    Часовой пояс: GMT + 7



    Вы не можете начинать темы
    Вы не можете отвечать на сообщения
    Вы не можете редактировать свои сообщения
    Вы не можете удалять свои сообщения
    Вы не можете голосовать в опросах
    Вы не можете прикреплять файлы к сообщениям
    Вы можете скачивать файлы


    More Details | Brooks Wheelan | 最后发表: 半小时前