[iPhone] Великие Рубаки на большом экране / Slayers Great (Ватанабэ Хироси / Watanabe Hiroshi) [1997, фэнтези, приключения, комедия, DVDRip, 576x320]

Ответить на тему
Статистика раздачи [Обновить пиров]
Размер:  547 MB   |    Зарегистрирован:  24 дня   |    Скачан:  0 раз

Полного источника не было: Никогда

 
   
 
 
 
Автор Сообщение

chi5o.com

Создавать темы 23-Янв-2019 11:25

[Цитировать]

Великие Рубаки на большом экране-
Оригинальное название: スレイヤーズぐれえと
Английское название: Slayers Great-Год выхода:
1997
Страна: Япония
Жанр:фэнтези, приключения, комедия
Продолжительность: 01:00:00-Перевод : Любительский Одноголосый
Субтитры: , -Дата выхода: 02.08.1997-Режиссёр: Ватанабэ Хироси
Студия: -Описание: Третий фильм,вышедший после сериала Try.- || || || -Качество: DVDRip
Формат файла: *.m4v
Видео кодек: H.264
Аудио кодек: ААС
Разрешение: 576х320
Другие параметры видео: 960 Кбит/сек, 16:9, 29,970 кадр/сек
Аудио : 160 Кбит/сек, 2 канала(ов), 48,0 КГц
Аудио : 160 Кбит/сек, 2 канала(ов), 48,0 КГц
Вшитая обложка: есть
Доп. теги (режиссёр, актёры и т.д.): есть
Телешоу/видеоклип : есть
Главы: нет
Серия/сезон: есть

MediaInfo

Формат файла                           : MPEG-4
Профиль формата                  : Base Media / Version 2
Идентификатор кодека             : mp42
Размер файла                     : 547 Мбайт
Продолжительность                : 59 м.
Общий поток                      : 1282 Кбит/сек
Название фильма                  : Slayers Great
Жанр                             : Science Fiction
Дата кодирования                 : 1997
Дата пометки                     : UTC 2012-04-29 13:13:58
Программа кодирования            : HandBrake 0.9.6 2012022800
Обложка                          : Yes
iTunMOVI                         :  /  /  /  /  directors /   /    /    name /    Ватанабэ Хироси /    /   /  /
desc                             :  Третий фильм,вышедший после сериала Try.
ldes                             :  Третий фильм,вышедший после сериала Try.
stik                             : 9
Видео
Идентификатор                    : 1
Формат файла                           : AVC
Формат файла/Информация                : Advanced Video Codec
Профиль формата                  : Baseline@L3.0
Параметр CABAC формата           : Нет
Параметр ReFrames формата        : 4 кадры
Идентификатор кодека             : avc1
Идентификатор кодека/Информация  : Advanced Video Coding
Продолжительность                : 59 м.
Вид битрейта                     : Переменный
Битрейт                          : 960 Кбит/сек
Ширина                           : 576 пикс.
Высота                           : 320 пикс.
Соотношение сторон               : 16:9
Режим частоты кадров             : Постоянный
Частота кадров                   : 29,970 кадр/сек
Цветовое пространство            : YUV
Подвыборка цветности             : 4:2:0
Битовая глубина                  : 8 бит
Тип развёртки                    : Прогрессивная
Бит/(Пиксели*Кадры)              : 0.174
Размер потока                    : 408 Мбайт (75%)
Библиотека кодирования           : x264 core 120
Настройки программы              : cabac=0 / ref=4 / deblock=1:0:0 / analyse=0x1:0x131 / me=umh / subme=6 / psy=1 / psy_rd=0.00:0.00 / mixed_ref=1 / me_range=16 / chroma_me=1 / trellis=0 / 8x8dct=0 / cqm=0 / deadzone=21,11 / fast_pskip=0 / chroma_qp_offset=0 / threads=6 / sliced_threads=0 / nr=0 / decimate=1 / interlaced=0 / bluray_compat=0 / constrained_intra=0 / bframes=0 / weightp=0 / keyint=300 / keyint_min=30 / scenecut=40 / intra_refresh=0 / rc_lookahead=40 / rc=2pass / mbtree=1 / bitrate=960 / ratetol=1.0 / qcomp=0.60 / qpmin=3 / qpmax=69 / qpstep=4 / cplxblur=20.0 / qblur=0.5 / vbv_maxrate=1500 / vbv_bufsize=2000 / nal_hrd=none / ip_ratio=1.40 / aq=1:1.00
Дата кодирования                 : UTC 2012-04-21 15:33:03
Дата пометки                     : UTC 2012-04-21 15:44:43
Основные цвета                   : BT.601-6 525, BT.1358 525, BT.1700 NTSC, SMPTE 170M
Характеристики трансфера         : BT.709-5, BT.1361
Коэффициенты матрицы             : BT.601-6 525, BT.1358 525, BT.1700 NTSC, SMPTE 170M
Аудио #1
Идентификатор                    : 2
Формат файла                           : AAC
Формат файла/Информация                : Advanced Audio Codec
Профиль формата                  : LC
Идентификатор кодека             : 40
Продолжительность                : 59 м.
Вид битрейта                     : Переменный
Битрейт                          : 160 Кбит/сек
Максимальный битрейт             : 357 Кбит/сек
Канал(ы)                         : 2 канала(ов)
Расположение каналов             : Front: L R
Частота                          : 48,0 КГц
Метод сжатия                     : С потерями
Размер потока                    : 68,2 Мбайт (12%)
Дата кодирования                 : UTC 2012-04-21 15:33:03
Дата пометки                     : UTC 2012-04-21 15:44:43
Аудио #2
Идентификатор                    : 3
Формат файла                           : AAC
Формат файла/Информация                : Advanced Audio Codec
Профиль формата                  : LC
Идентификатор кодека             : 40
Продолжительность                : 59 м.
Вид битрейта                     : Переменный
Битрейт                          : 160 Кбит/сек
Максимальный битрейт             : 357 Кбит/сек
Канал(ы)                         : 2 канала(ов)
Расположение каналов             : Front: L R
Частота                          : 48,0 КГц
Метод сжатия                     : С потерями
Размер потока                    : 68,2 Мбайт (12%)
Дата кодирования                 : UTC 2012-04-21 15:33:03
Дата пометки                     : UTC 2012-04-21 15:44:43
Текст #1
Идентификатор                    : 4
Формат файла                           : Timed text
Режим смешивания                 : sbtl
Идентификатор кодека             : tx3g
Продолжительность                : 54 м.
Вид битрейта                     : Переменный
Битрейт                          : 17 бит/сек
Размер потока                    : 6,82 Кбайт (0%)
Язык                             : Russian
Дата кодирования                 : UTC 2012-04-21 15:33:03
Дата пометки                     : UTC 2012-04-21 15:44:00
Текст #2
Идентификатор                    : 5
Формат файла                           : Timed text
Режим смешивания                 : sbtl
Идентификатор кодека             : tx3g
Продолжительность                : 54 м.
Вид битрейта                     : Переменный
Битрейт                          : 52 бит/сек
Размер потока                    : 21,0 Кбайт (0%)
Язык                             : Russian
Дата кодирования                 : UTC 2012-04-21 15:33:03
Дата пометки                     : UTC 2012-04-21 15:43:58

Скриншоты



[chi5o.com]_t_4041410.torrent
Торрент: Зарегистрирован ·  [ 2019-01-23 11:25 ] ·  87f432ebbc224fad897e148921479053729c7aac

1 KB

Статус: проверено
Скачан: 0 раз
Размер: 547 MB
Оценка: 
(Голосов: 0)
Сказали спасибо: 0  Спасибо
Похожие темы
[Профиль]    [ЛС]
Показать сообщения:    
Ответить на тему

Текущее время: Сегодня 10:49

Часовой пояс: GMT + 7



Вы не можете начинать темы
Вы не можете отвечать на сообщения
Вы не можете редактировать свои сообщения
Вы не можете удалять свои сообщения
Вы не можете голосовать в опросах
Вы не можете прикреплять файлы к сообщениям
Вы можете скачивать файлы


Hanson and the Beast | Siguiente » | Watch movie