Чужая планета / Strange Planet (Эмма-Кейт Кроган / Emma-Kate Croghan) [1999, Австралия, романтическая комедия, DVDRip] [Fullscreen] MVO

Ответить на тему
Статистика раздачи [Обновить пиров]
Размер:  1.37 GB   |    Зарегистрирован:  6 дней   |    Скачан:  0 раз

Полного источника не было: Никогда

 
   
 
 
 
Автор Сообщение

chi5o.com

Создавать темы 13-Янв-2019 03:05

[Цитировать]

Чужая планета | Strange Planet«right place. right time. wrong guy»Fullscreen
Страна: Австралия
Студия: Australian Film Finance Corporation (AFFC), Strange Planet, Premium Movie Partnership
Жанр: романтическая комедия
Год выхода: 1999
Продолжительность: 01:31:58-Перевод: Профессиональный (многоголосый закадровый)
Субтитры: нет
Оригинальная аудиодорожка: нет-Режиссер: Эмма-Кейт Кроган / Emma-Kate Croghan
В ролях: Клаудия Карван, Наоми Уоттс, Элис Гарнер, Том Лонг, Аарон Джеффри, Феликс Уильямсон, Хьюго Уивинг, Ребекка Фрит, Маршалл Напье, Лоэн Кармен-Описание: Фильм раскрывает взаимоотношения между тремя парами молодых людей накануне празднования Нового года.


Качество видео: DVDRip R2
Формат файла: AVI
Видео: MPEG-4 Visual / 704x528 (1,33:1) / 25,000 fps / XviD build 73 ~1936 kbps avg / 0.208 bit/pixel
Аудио: Russian | Dolby Digital Audio / 48 kHz / 2.0 Ch / 192 kbps / 16-bit | MVO

DVDInfo Источник: Torrentcа

Title: flaSI-I
Size: 2.92 Gb ( 3 060 328 KBytes ) - DVD-5
Enabled regions: 1, 2, 3, 4, 5, 6, 7, 8
VTS_01 :
  Play Length: 01:31:58
  Video: PAL 4:3 (720x576) VBR
  Audio:
      English (Dolby AC3, 6 ch)
  Subtitles:
      English
      Dansk
Menu Video:
      PAL 4:3 (720x576) VBR
Menu Subtitles:
      Not specified
Menu English Language Unit :
      Root Menu

WS vs. FS

WS---------------vs.---------------FS



MediaInfo

Общее
Полное имя                               : S:\[b][color=blue]DVDRip[/color][/b]\Strange Planet.1999.Fullscreen.[b][color=blue]DVDRip[/color][/b].XviD.Rus.DD.2.0.avi
Формат файла                                   : AVI
Формат файла/Информация                        : Audio Video Interleave
Размер файла                             : 1,37 Гбайт
Продолжительность                        : 1 ч. 31 м.
Общий поток                              : 2138 Кбит/сек
Программа кодирования                    : VirtualDubMod 1.5.10.3 | www.virtualdub-fr.org || (build 2550/release)
Библиотека кодирования                   : VirtualDubMod build 2550/release
Видео
Идентификатор                            : 0
Формат файла                                   : MPEG-4 Visual
Профиль формата                          : Advanced Simple@L5
Настройки формата                        : BVOP1 / Custom Matrix
Параметр BVOP формата                    : 1
Параметр QPel формата                    : Нет
Параметр GMC формата                     : Без точки перехода
Параметр матрицы формата                 : Выборочная
Идентификатор кодека                     : XVID
Идентификатор кодека/Подсказка           : XviD
Продолжительность                        : 1 ч. 31 м.
Битрейт                                  : 1936 Кбит/сек
Ширина                                   : 704 пикселя
Высота                                   : 528 пикселей
Соотношение сторон                       : 4:3
Частота кадров                           : 25,000 кадров/сек
Цветовое пространство                    : YUV
Субдискретизация насыщенности            : 4:2:0
Битовая глубина                          : 8 бит
Тип развёртки                            : Прогрессивная
Метод сжатия                             : С потерями
Бит/(Пиксели*Кадры)                      : 0.208
Размер потока                            : 1,24 Гбайт (91%)
Библиотека кодирования                   : XviD 73
Аудио
Идентификатор                            : 1
Формат файла                                   : AC-3
Формат файла/Информация                        : Audio Coding 3
Коммерческое название                    : Dolby Digital
Идентификатор кодека                     : 2000
Продолжительность                        : 1 ч. 31 м.
Вид битрейта                             : Постоянный
Битрейт                                  : 192 Кбит/сек
Каналы                                   : 2 канала
Channel layout                           : L R
Частота                                  : 48,0 КГц
Частота кадров                           : 31,250 кадров/сек (1536 SPF)
Битовая глубина                          : 16 бит
Метод сжатия                             : С потерями
Размер потока                            : 126 Мбайт (9%)
Выравнивание                             : Разделение по промежуткам
Продолжительность промежутка             : 40  мс. (1,00 видеокадр)
Время предзагрузки промежутка            : 500  мс.
Заголовок                                : MVO
ServiceKind/String                       : Complete Main


[chi5o.com]_t_5673541.torrent
Торрент: Зарегистрирован ·  [ 2019-01-13 03:05 ] ·  0e103fd8e6a3f5187e1025a1fa254b8a827e47f9

14 KB

Статус: проверено
Скачан: 0 раз
Размер: 1.37 GB
Оценка: 
(Голосов: 0)
Сказали спасибо: 0  Спасибо
Похожие темы
[Профиль]    [ЛС]
Показать сообщения:    
Ответить на тему

Текущее время: Сегодня 01:52

Часовой пояс: GMT + 7



Вы не можете начинать темы
Вы не можете отвечать на сообщения
Вы не можете редактировать свои сообщения
Вы не можете удалять свои сообщения
Вы не можете голосовать в опросах
Вы не можете прикреплять файлы к сообщениям
Вы можете скачивать файлы


Falken PP-Ordner A4 8cm vollfarbig Aktenordner Kunststoffordner PP Ordner | 한국어 | Bracelet Infinity Infiny Mode Strass Femme Zirconium Idée Cadeau Bijoux Amitié