(Soundtrack) [CD] James Bond Greatest Hits: 007 / 13 Original Themes - 1985 (1962-1983), FLAC (tracks+.cue) lossless

Ответить на тему
Статистика раздачи [Обновить пиров]
Размер:  224 MB   |    Зарегистрирован:  1 месяц 3 дня   |    Скачан:  0 раз

Полного источника не было: Никогда

 
   
 
 
 
Автор Сообщение

chi5o.com

Создавать темы 13-Янв-2019 02:03

[Цитировать]

James Bond Greatest Hits
Название альбома: 007 / 13 Original Themes
Жанр: Soundtrack
Носитель: CD
Композитор: Various Artists
Год выхода диска: 1985
Год выхода фильма: 1962-1983
Страна-производитель диска: Япония
Издатель (лейбл): LIBERTY
Номер по каталогу: CP32-5046
Аудиокодек: FLAC (*.flac)
Тип рипа: tracks+.cue
Битрейт аудио: lossless
Продолжительность: 37:30
Источник: maximus_lt - по согласованию
Наличие сканов в содержимом раздачи: да
Треклист:
01. John Barry - The James Bond Theme (01:47)
02. Matt Monro - From Russia With Love (02:33)
03. Shirley Bassey - Goldfinger (02:48)
04. Tom Jones - Thunderball (03:01)
05. Nancy Sinatra - You Only Live Twice (02:45)
06. Louis Armstrong - We Have All The Time In The World (03:14)
07. Shirley Bassey - Diamonds Are Forever (02:41)
08. Paul McCartney & Wings - Live And Let Die (03:12)
09. Lulu - The Man With The Golden Gun (02:35)
10. Carly Simon - Nobody Does It Better (03:32)
11. Shirley Bassey - Moonraker (03:10)
12. Sheena Easton - For Your Eyes Only (03:06)
13. Rita Coolidge - All Time High (03:02)

Лог создания рипа

X Lossless Decoder version 20161007 (149.3)
XLD extraction logfile from 2017-02-10 14:44:40 +0100
Various Artists / James Bond Greatest Hits: 007 / 13 Original Themes [Liberty JP CP32-5046]
Used Drive : Optiarc DVD RW AD-5280S (revision 1.Z7) (not found in database)Media type : Pressed CD
Ripper mode : XLD Secure RipperDisable audio cache : OK for the drive with a cache less than 1375KiBMake use of C2 pointers : NORead offset correction : 48Max retry count : 20Gap status : Analyzed, Appended (except HTOA)
TOC of the extracted CD Track | Start | Length | Start sector | End sector --------------------------------------------------------- 1 | 00:00:00 | 01:47:45 | 0 | 8069 2 | 01:47:45 | 02:33:37 | 8070 | 19581 3 | 04:21:07 | 02:48:25 | 19582 | 32206 4 | 07:09:32 | 03:01:03 | 32207 | 45784 5 | 10:10:35 | 02:45:17 | 45785 | 58176 6 | 12:55:52 | 03:14:28 | 58177 | 72754 7 | 16:10:05 | 02:41:45 | 72755 | 84874 8 | 18:51:50 | 03:12:32 | 84875 | 99306 9 | 22:04:07 | 02:35:20 | 99307 | 110951 10 | 24:39:27 | 03:32:35 | 110952 | 126886 11 | 28:11:62 | 03:10:28 | 126887 | 141164 12 | 31:22:15 | 03:06:00 | 141165 | 155114 13 | 34:28:15 | 03:02:60 | 155115 | 168824
List of alternate offset correction values # | Absolute | Relative | Confidence ------------------------------------------ 1 | 305 | 257 | 4
AccurateRip Summary (DiscID: 00112576-00ae9b6c-a208cb0d) Track 01 : OK (v1+v2, confidence 5/9) Track 02 : OK (v1+v2, confidence 5/9) Track 03 : OK (v1+v2, confidence 5/9) Track 04 : OK (v1+v2, confidence 5/9) Track 05 : OK (v1+v2, confidence 5/9) Track 06 : OK (v1+v2, confidence 5/9) Track 07 : OK (v1+v2, confidence 5/9) Track 08 : OK (v1+v2, confidence 5/9) Track 09 : OK (v1+v2, confidence 5/9) Track 10 : OK (v2, confidence 4/8) Track 11 : OK (v2, confidence 4/8) Track 12 : OK (v1+v2, confidence 6/10) Track 13 : OK (v1+v2, confidence 6/10) ->All tracks accurately ripped.
All Tracks Album gain : -1.76 dB Peak : 0.893982 Statistics Read error : 0 Jitter error (maybe fixed) : 0 Retry sector count : 0 Damaged sector count : 0
Track 01 Filename : /Users/Shared/BORKMANN/01 Monty Norman - The James Bond Theme.flac Pre-gap length : 00:02:00
Track gain : -2.11 dB Peak : 0.699982 CRC32 hash (test run) : 4C808B96 CRC32 hash : 4C808B96 CRC32 hash (skip zero) : 798BAA61 AccurateRip v1 signature : 9D9B2558 AccurateRip v2 signature : 9A3E901F ->Accurately ripped (v1+v2, confidence 2+3/9) Statistics Read error : 0 Jitter error (maybe fixed) : 0 Retry sector count : 0 Damaged sector count : 0
Track 02 Filename : /Users/Shared/BORKMANN/02 Matt Monro - From Russia With Love.flac
Track gain : 0.16 dB Peak : 0.515076 CRC32 hash (test run) : FBA3D141 CRC32 hash : FBA3D141 CRC32 hash (skip zero) : DB447B3E AccurateRip v1 signature : 65C2A132 AccurateRip v2 signature : 9B117165 ->Accurately ripped (v1+v2, confidence 2+3/9) Statistics Read error : 0 Jitter error (maybe fixed) : 0 Retry sector count : 0 Damaged sector count : 0
Track 03 Filename : /Users/Shared/BORKMANN/03 Shirley Bassey - Goldfinger.flac
Track gain : -2.35 dB Peak : 0.596954 CRC32 hash (test run) : CB77460D CRC32 hash : CB77460D CRC32 hash (skip zero) : C8A232EC AccurateRip v1 signature : D835A082 AccurateRip v2 signature : 6AB4DA37 ->Accurately ripped (v1+v2, confidence 2+3/9) Statistics Read error : 0 Jitter error (maybe fixed) : 0 Retry sector count : 0 Damaged sector count : 0
Track 04 Filename : /Users/Shared/BORKMANN/04 Tom Jones - Thunderball.flac
Track gain : -2.11 dB Peak : 0.621857 CRC32 hash (test run) : 454A0FA7 CRC32 hash : 454A0FA7 CRC32 hash (skip zero) : 06E84525 AccurateRip v1 signature : 8A17843B AccurateRip v2 signature : 2DC44EC9 ->Accurately ripped (v1+v2, confidence 2+3/9) Statistics Read error : 0 Jitter error (maybe fixed) : 0 Retry sector count : 0 Damaged sector count : 0
Track 05 Filename : /Users/Shared/BORKMANN/05 Nancy Sinatra - You Only Live Twice.flac
Track gain : -1.61 dB Peak : 0.713409 CRC32 hash (test run) : 0269A6AC CRC32 hash : 0269A6AC CRC32 hash (skip zero) : 54535B82 AccurateRip v1 signature : EC5A0B27 AccurateRip v2 signature : EF9A7CBB ->Accurately ripped (v1+v2, confidence 2+3/9) Statistics Read error : 0 Jitter error (maybe fixed) : 0 Retry sector count : 0 Damaged sector count : 0
Track 06 Filename : /Users/Shared/BORKMANN/06 Louis Armstrong - We Have All the Time in the World.flac
Track gain : 0.33 dB Peak : 0.679749 CRC32 hash (test run) : A8A0DBEF CRC32 hash : A8A0DBEF CRC32 hash (skip zero) : 57573ABF AccurateRip v1 signature : 908D273A AccurateRip v2 signature : 132A3675 ->Accurately ripped (v1+v2, confidence 2+3/9) Statistics Read error : 0 Jitter error (maybe fixed) : 0 Retry sector count : 0 Damaged sector count : 0
Track 07 Filename : /Users/Shared/BORKMANN/07 Shirley Bassey - Diamonds Are Forever.flac
Track gain : -2.24 dB Peak : 0.697235 CRC32 hash (test run) : C4B958AF CRC32 hash : C4B958AF CRC32 hash (skip zero) : DF2728F9 AccurateRip v1 signature : C32768CD AccurateRip v2 signature : BBB01500 ->Accurately ripped (v1+v2, confidence 2+3/9) Statistics Read error : 0 Jitter error (maybe fixed) : 0 Retry sector count : 0 Damaged sector count : 0
Track 08 Filename : /Users/Shared/BORKMANN/08 Paul McCartney - Wings - Live and Let Die.flac
Track gain : -1.66 dB Peak : 0.750488 CRC32 hash (test run) : E1B43947 CRC32 hash : E1B43947 CRC32 hash (skip zero) : 57256126 AccurateRip v1 signature : B50CDC33 AccurateRip v2 signature : B578BF5B ->Accurately ripped (v1+v2, confidence 2+3/9) Statistics Read error : 0 Jitter error (maybe fixed) : 0 Retry sector count : 0 Damaged sector count : 0
Track 09 Filename : /Users/Shared/BORKMANN/09 John Barry - Lulu - The Man With the Golden Gun.flac Pre-gap length : 00:01:60
Track gain : -3.32 dB Peak : 0.893982 CRC32 hash (test run) : D5BA6358 CRC32 hash : D5BA6358 CRC32 hash (skip zero) : 3D09512E AccurateRip v1 signature : C8FCD480 AccurateRip v2 signature : 94CC4CAD ->Accurately ripped (v1+v2, confidence 2+3/9) Statistics Read error : 0 Jitter error (maybe fixed) : 0 Retry sector count : 0 Damaged sector count : 0
Track 10 Filename : /Users/Shared/BORKMANN/10 Carly Simon - Nobody Does It Better.flac Pre-gap length : 00:01:20
Track gain : -1.22 dB Peak : 0.673950 CRC32 hash (test run) : 539834CA CRC32 hash : 539834CA CRC32 hash (skip zero) : 1CC393C8 AccurateRip v1 signature : 0079C904 AccurateRip v2 signature : 48BD1391 ->Accurately ripped (v2, confidence 4/8) Statistics Read error : 0 Jitter error (maybe fixed) : 0 Retry sector count : 0 Damaged sector count : 0
Track 11 Filename : /Users/Shared/BORKMANN/11 Shirley Bassey - Moonraker.flac Pre-gap length : 00:02:17
Track gain : -1.02 dB Peak : 0.608307 CRC32 hash (test run) : C21C7F8A CRC32 hash : C21C7F8A CRC32 hash (skip zero) : 1299EFB0 AccurateRip v1 signature : D12F28AF AccurateRip v2 signature : 4FD82485 ->Accurately ripped (v2, confidence 4/8) Statistics Read error : 0 Jitter error (maybe fixed) : 0 Retry sector count : 0 Damaged sector count : 0
Track 12 Filename : /Users/Shared/BORKMANN/12 Sheena Easton - For Your Eyes Only.flac Pre-gap length : 00:02:33
Track gain : -0.90 dB Peak : 0.854401 CRC32 hash (test run) : 4A8C186D CRC32 hash : 4A8C186D CRC32 hash (skip zero) : B22E49F5 AccurateRip v1 signature : 0E2BFC2F AccurateRip v2 signature : B861FFAD ->Accurately ripped (v1+v2, confidence 2+4/10) Statistics Read error : 0 Jitter error (maybe fixed) : 0 Retry sector count : 0 Damaged sector count : 0
Track 13 Filename : /Users/Shared/BORKMANN/13 Rita Coolidge - All Time High.flac Pre-gap length : 00:02:23
Track gain : -1.53 dB Peak : 0.785492 CRC32 hash (test run) : 5A30B650 CRC32 hash : 5A30B650 CRC32 hash (skip zero) : 5D389D51 AccurateRip v1 signature : C7C2FCD3 AccurateRip v2 signature : 7BDB35D7 ->Accurately ripped (v1+v2, confidence 2+4/10) Statistics Read error : 0 Jitter error (maybe fixed) : 0 Retry sector count : 0 Damaged sector count : 0
No errors occurred
End of status report
-----BEGIN XLD SIGNATURE-----h.psmr5gzJufLLk8AEpyzM7yWXIIQeFKtigOvI9cH_A.tmX9ZPsaR4wmmk41Ir3pps11BKqHfUHiiFnmhJXepN253iFxTeyPIU2Jfj0-----END XLD SIGNATURE-----

LOG (.CUE)

TITLE "James Bond Greatest Hits: 007 / 13 Original Themes [Liberty JP CP32-5046]"PERFORMER "Various Artists"REM DATE "1985-07-20"REM DISCID A208CB0DREM REPLAYGAIN_ALBUM_GAIN -1.76 dBREM REPLAYGAIN_ALBUM_PEAK 0.893982FILE "01 Monty Norman - The James Bond Theme.flac" WAVE TRACK 01 AUDIO TITLE "The James Bond Theme" PERFORMER "Monty Norman" SONGWRITER "Monty Norman" REM REPLAYGAIN_TRACK_GAIN -2.11 dB REM REPLAYGAIN_TRACK_PEAK 0.699982 INDEX 01 00:00:00FILE "02 Matt Monro - From Russia With Love.flac" WAVE TRACK 02 AUDIO TITLE "From Russia With Love" PERFORMER "Matt Monro" SONGWRITER "Lionel Bart" ISRC GBAYE6300049 REM REPLAYGAIN_TRACK_GAIN 0.16 dB REM REPLAYGAIN_TRACK_PEAK 0.515076 INDEX 01 00:00:00FILE "03 Shirley Bassey - Goldfinger.flac" WAVE TRACK 03 AUDIO TITLE "Goldfinger" PERFORMER "Shirley Bassey" SONGWRITER "John Barry" ISRC USEM39100210 REM REPLAYGAIN_TRACK_GAIN -2.35 dB REM REPLAYGAIN_TRACK_PEAK 0.596954 INDEX 01 00:00:00FILE "04 Tom Jones - Thunderball.flac" WAVE TRACK 04 AUDIO TITLE "Thunderball" PERFORMER "Tom Jones" SONGWRITER "John Barry" REM REPLAYGAIN_TRACK_GAIN -2.11 dB REM REPLAYGAIN_TRACK_PEAK 0.621857 INDEX 01 00:00:00FILE "05 Nancy Sinatra - You Only Live Twice.flac" WAVE TRACK 05 AUDIO TITLE "You Only Live Twice" PERFORMER "Nancy Sinatra" SONGWRITER "John Barry" REM REPLAYGAIN_TRACK_GAIN -1.61 dB REM REPLAYGAIN_TRACK_PEAK 0.713409 INDEX 01 00:00:00FILE "06 Louis Armstrong - We Have All the Time in the World.flac" WAVE TRACK 06 AUDIO TITLE "We Have All the Time in the World" PERFORMER "Louis Armstrong" SONGWRITER "John Barry" REM REPLAYGAIN_TRACK_GAIN 0.33 dB REM REPLAYGAIN_TRACK_PEAK 0.679749 INDEX 01 00:00:00FILE "07 Shirley Bassey - Diamonds Are Forever.flac" WAVE TRACK 07 AUDIO TITLE "Diamonds Are Forever" PERFORMER "Shirley Bassey" SONGWRITER "John Barry" ISRC USEM38400049 REM REPLAYGAIN_TRACK_GAIN -2.24 dB REM REPLAYGAIN_TRACK_PEAK 0.697235 INDEX 01 00:00:00FILE "08 Paul McCartney - Wings - Live and Let Die.flac" WAVE TRACK 08 AUDIO TITLE "Live and Let Die" PERFORMER "Paul McCartney & Wings" REM REPLAYGAIN_TRACK_GAIN -1.66 dB REM REPLAYGAIN_TRACK_PEAK 0.750488 INDEX 01 00:00:00 TRACK 09 AUDIO TITLE "The Man With the Golden Gun" PERFORMER "John Barry & Lulu" SONGWRITER "John Barry" ISRC USCE39100001 REM REPLAYGAIN_TRACK_GAIN -3.32 dB REM REPLAYGAIN_TRACK_PEAK 0.893982 INDEX 00 03:10:47FILE "09 John Barry - Lulu - The Man With the Golden Gun.flac" WAVE INDEX 01 00:00:00 TRACK 10 AUDIO TITLE "Nobody Does It Better" PERFORMER "Carly Simon" SONGWRITER "Marvin Hamlisch" ISRC USEM39100214 REM REPLAYGAIN_TRACK_GAIN -1.22 dB REM REPLAYGAIN_TRACK_PEAK 0.673950 INDEX 00 02:34:00FILE "10 Carly Simon - Nobody Does It Better.flac" WAVE INDEX 01 00:00:00 TRACK 11 AUDIO TITLE "Moonraker" PERFORMER "Shirley Bassey" SONGWRITER "John Barry" REM REPLAYGAIN_TRACK_GAIN -1.02 dB REM REPLAYGAIN_TRACK_PEAK 0.608307 INDEX 00 03:30:18FILE "11 Shirley Bassey - Moonraker.flac" WAVE INDEX 01 00:00:00 TRACK 12 AUDIO TITLE "For Your Eyes Only" PERFORMER "Sheena Easton" SONGWRITER "Bill Conti" REM REPLAYGAIN_TRACK_GAIN -0.90 dB REM REPLAYGAIN_TRACK_PEAK 0.854401 INDEX 00 03:07:70FILE "12 Sheena Easton - For Your Eyes Only.flac" WAVE INDEX 01 00:00:00 TRACK 13 AUDIO TITLE "All Time High" PERFORMER "Rita Coolidge" SONGWRITER "John Barry" REM REPLAYGAIN_TRACK_GAIN -1.53 dB REM REPLAYGAIN_TRACK_PEAK 0.785492 INDEX 00 03:03:52FILE "13 Rita Coolidge - All Time High.flac" WAVE INDEX 01 00:00:00


[chi5o.com]_t_5670552.torrent
Торрент: Зарегистрирован ·  [ 2019-01-13 02:03 ] ·  02dc76ba2e80d404fcf4a367e7b325ca9d3c7c53

19 KB

Статус: проверено
Скачан: 0 раз
Размер: 224 MB
Оценка: 
(Голосов: 0)
Сказали спасибо: 0  Спасибо
Похожие темы
[Профиль]    [ЛС]
Показать сообщения:    
Ответить на тему

Текущее время: Сегодня 16:32

Часовой пояс: GMT + 7



Вы не можете начинать темы
Вы не можете отвечать на сообщения
Вы не можете редактировать свои сообщения
Вы не можете удалять свои сообщения
Вы не можете голосовать в опросах
Вы не можете прикреплять файлы к сообщениям
Вы можете скачивать файлы


Season 1, Episode 3: Episode 3 | 热血少年团 | Manifest.S01E02.720p.HDTV.2CH.x265.HEVC-PSA_letronghieu