Микко из Тампере просит совета (Юрий Чулюкин, Георгий Кушниренко) [1986, семейный, комедия, музыкальный, SATRip]

Ответить на тему
Статистика раздачи [Обновить пиров]
Размер:  1.46 GB   |    Зарегистрирован:  1 месяц 3 дня   |    Скачан:  0 раз

Полного источника не было: Никогда

 
   
 
 
 
Автор Сообщение

chi5o.com

Создавать темы 13-Янв-2019 02:03

[Цитировать]

Микко из Тампере просит совета
Студия: Творческое объединение «Экран», YLE TV2
Жанр: семейный, комедия, музыкальный
Год выхода: 1986
Продолжительность: 01:35:06
Режиссер: Юрий Чулюкин, Георгий Кушниренко
В ролях: Эско Ройне, Улла-Майя Силкавире, Раймо Грёнберг, Улла Тапанинен, Анне Вески, Амаяк Акопян, Юрий Куклачёв, Рики Сорса, Марти Сурия, Павел Винник
Описание: О дружбе между гастролирующими по Финляндии советскими артистами и финскими детьми, участниками самодеятельного музыкального ансамбля города Тампере. Микко в телевизоре увидел выступление клоуна Куклачёва с его дрессированными кошками. В восторге мальчик написал Куклачёву письмо, где рассказал, что тоже хочет дрессировать своего домашнего кота, но не знает, как это правильно делать с кошками. Когда Куклачёв получил это письмо, он собирался уже ответить, но из-за пропажи конверта он помнил только, что Микко живет в городе Тампере, и больше ничего о его адресе. К счастью, цирк отправился с гастролями в Финляндию. Приехав в Тампере, Куклачёв просит переводчика помочь найти мальчика Микко, который наверняка давно уже ждёт письма.
Дополнительная информация:
Автор релиза -
Источник видео для рипа - DVB 576i TS - моя запись с канала "Россия К"


Сэмпл: http://multi-up.com/1219526
Рекламы нет!
Качество видео: SATRip
Формат файла: AVI
Видео: XviD, 720x528 (4:3), 1999 kbps, 25.000 fps, 0.210 bit/pixel
Аудио: Русский АC3, 48000 Гц, 2ch, 192 kbps

MediaInfo

ОбщееПолное имя : D:\Микко.из.Тампере.просит.совета.1986.SATRip-ylnian.aviФормат файла : AVIФормат файла/Информация : Audio Video InterleaveРазмер файла : 1,46 ГбайтПродолжительность : 1 ч. 35 м.Общий поток : 2200 Кбит/секПрограмма кодирования : VirtualDubMod 1.5.10.3 | www.virtualdub-fr.org || (build 2550/release)Библиотека кодирования : VirtualDubMod build 2550/release
ВидеоИдентификатор : 0Формат файла : MPEG-4 VisualПрофиль формата : Advanced Simple@L5Настройки формата : BVOP1 / Custom MatrixПараметр BVOP формата : 1Параметр QPel формата : НетПараметр GMC формата : Без точки переходаПараметр матрицы формата : ВыборочнаяИдентификатор кодека : XVIDИдентификатор кодека/Подсказка : XviDПродолжительность : 1 ч. 35 м.Битрейт : 1999 Кбит/секШирина : 720 пикселейВысота : 528 пикселейСоотношение сторон : 4:3Частота кадров : 25,000 кадров/секЦветовое пространство : YUVСубдискретизация насыщенности : 4:2:0Битовая глубина : 8 битТип развёртки : ПрогрессивнаяМетод сжатия : С потерямиБит/(Пиксели*Кадры) : 0.210Размер потока : 1,33 Гбайт (91%)Библиотека кодирования : XviD 67
АудиоИдентификатор : 1Формат файла : AC-3Формат файла/Информация : Audio Coding 3Коммерческое название : Dolby DigitalИдентификатор кодека : 2000Продолжительность : 1 ч. 35 м.Вид битрейта : ПостоянныйБитрейт : 192 Кбит/секКаналы : 2 каналаChannel layout : L RЧастота : 48,0 КГцЧастота кадров : 31,250 кадров/сек (1536 SPF)Битовая глубина : 16 битМетод сжатия : С потерямиРазмер потока : 131 Мбайт (9%)Выравнивание : Разделение по промежуткамПродолжительность промежутка : 40 мс. (1,00 видеокадр)Время предзагрузки промежутка : 500 мс.ServiceKind/String : Complete Main

Источник: Torrentc

Источник: Torrentc с TVRip-ом by Xamasas - - в моём релизе больше наполнение кадра, лучше детализация


[chi5o.com]_t_5669885.torrent
Торрент: Зарегистрирован ·  [ 2019-01-13 02:03 ] ·  6b20b942f4d299fc0bd308ff332663df5f4c7a97

15 KB

Статус: проверено
Скачан: 0 раз
Размер: 1.46 GB
Оценка: 
(Голосов: 0)
Сказали спасибо: 0  Спасибо
Похожие темы
[Профиль]    [ЛС]
Показать сообщения:    
Ответить на тему

Текущее время: Сегодня 16:35

Часовой пояс: GMT + 7



Вы не можете начинать темы
Вы не можете отвечать на сообщения
Вы не можете редактировать свои сообщения
Вы не можете удалять свои сообщения
Вы не можете голосовать в опросах
Вы не можете прикреплять файлы к сообщениям
Вы можете скачивать файлы


Offspring | 2x05 ¿Qué tiene de malo intentar ligar en una mazmorra? | uptobox.com