Каждый 88 (Дарья Лебедева) [2015, короткометражка, мелодрама, комедия, WEBRip 720p]

Ответить на тему
Статистика раздачи [Обновить пиров]
Размер:  165 MB   |    Зарегистрирован:  1 месяц 3 дня   |    Скачан:  0 раз

Полного источника не было: Никогда

 
   
 
 
 
Автор Сообщение

chi5o.com

Создавать темы 13-Янв-2019 02:03

[Цитировать]

Каждый 88 Год выхода: 2015, киностудия "НАСЛЕДНИКИ"
Жанр: короткометражка, мелодрама, комедия
Продолжительность: 00:25:58-Режиссёр: Дарья Лебедева
В главных ролях: Дмитрий Ендальцев, Сергей Бадюк, Ляля Бежецкая, Раиса Дмитренко, Стэфания Заровная, Михаил Росляков, Андрей Перунов, Антон Полетаев, Глеб Козляев
Михаил Борисов-Описание: Молодой советский солдат погибает на поле боя. Он хотел жить, но попал в другой мир, о котором не писали ни в одной книге. Всё, чем он жил, все его ценности и воспоминания в прошлом. Ему остается только ждать билет в новую жизнь и надеяться, что он будет счастливым.- -Качество: WEBRip 720p
Формат файла: MP4
Видео кодек: AVC
Аудио кодек: AAС
Видео: 1280x534, 24 fps, ~761 kbps avg, 0.046 bit/pixel
Аудио: 44,1 kHz, AAC, 2ch, ~126 kbps

скриншоты

MediaInfo

Общее
Полное имя : D:\Каждый 88.2015.WEBRip 720p.mp4
Формат файла : MPEG-4
Профиль формата : Base Media / Version 2
Идентификатор кодека : mp42 (isom/mp42)
Размер файла : 165 Мбайт
Продолжительность : 25 м. 58 с.
Режим общего битрейта : Переменный
Общий поток : 890 Кбит/сек
Дата кодирования : UTC 2018-10-23 16:51:31
Дата пометки : UTC 2018-10-23 16:51:31
gsst : 0
gstd : 1558523
Видео
Идентификатор : 1
Формат файла : AVC
Формат файла/Информация : Advanced Video Codec
Профиль формата : Main@L3.1
Настройки формата : CABAC / 3 Ref Frames
Параметр CABAC формата : Да
Параметр RefFrames формата : 3 кадра
Идентификатор кодека : avc1
Идентификатор кодека/Информация : Advanced Video Coding
Продолжительность : 25 м. 58 с.
Битрейт : 761 Кбит/сек
Ширина : 1280 пикселей
Высота : 534 пикселя
Соотношение сторон : 2,40:1
Режим частоты кадров : Постоянный
Частота кадров : 24,000 кадра/сек
Цветовое пространство : YUV
Субдискретизация насыщенности : 4:2:0
Битовая глубина : 8 бит
Тип развёртки : Прогрессивная
Бит/(Пиксели*Кадры) : 0.046
Размер потока : 141 Мбайт (86%)
Заголовок : ISO Media file produced by Google Inc. Created on: 10/23/2018.
Дата кодирования : UTC 2018-10-23 16:51:31
Дата пометки : UTC 2018-10-23 16:51:31
Цветовой диапазон : Limited
Основные цвета : BT.709
Характеристики трансфера : BT.709
Коэффициенты матрицы : BT.709
Аудио
Идентификатор : 2
Формат файла : AAC
Формат файла/Информация : Advanced Audio Codec
Профиль формата : LC
Идентификатор кодека : mp4a-40-2
Продолжительность : 25 м. 58 с.
Вид битрейта : Переменный
Битрейт : 126 Кбит/сек
Каналы : 2 канала
Расположение каналов : Front: L R
Частота : 44,1 КГц
Частота кадров : 43,066 кадра/сек (1024 SPF)
Метод сжатия : С потерями
Размер потока : 23,3 Мбайт (14%)
Заголовок : ISO Media file produced by Google Inc. Created on: 10/23/2018.
Дата кодирования : UTC 2018-10-23 16:51:31
Дата пометки : UTC 2018-10-23 16:51:31


[chi5o.com]_t_5669788.torrent
Торрент: Зарегистрирован ·  [ 2019-01-13 02:03 ] ·  a6da356d79278d7652f2d3d8e205f18f524709d6

13 KB

Статус: проверено
Скачан: 0 раз
Размер: 165 MB
Оценка: 
(Голосов: 0)
Сказали спасибо: 0  Спасибо
Похожие темы
[Профиль]    [ЛС]
Показать сообщения:    
Ответить на тему

Текущее время: Сегодня 17:11

Часовой пояс: GMT + 7



Вы не можете начинать темы
Вы не можете отвечать на сообщения
Вы не можете редактировать свои сообщения
Вы не можете удалять свои сообщения
Вы не можете голосовать в опросах
Вы не можете прикреплять файлы к сообщениям
Вы можете скачивать файлы


Gekijouban Sora no otoshimono: Tokei jikake no enjeroido | DeezLoader Reborn V3.1.0 final (Windows) | File Manager