Всё или ничего (Дмитрий Суворов) [2018, комедия, приключения, WEB-DLRip]

Ответить на тему
Статистика раздачи [Обновить пиров]
Размер:  1.46 GB   |    Зарегистрирован:  7 дней   |    Скачан:  0 раз

Полного источника не было: Никогда

 
   
 
 
 
Автор Сообщение

chi5o.com

Создавать темы 13-Янв-2019 02:03

[Цитировать]

Всё или ничего
«Достал начальник? Хватит это терпеть!»
- Год выхода: 2018
Страна: Россия
Жанр: комедия, приключения
Продолжительность: 01:28:45-Режиссер:
Дмитрий Суворов-В ролях:
Роман Курцын, Артур Смольянинов, Данила Якушев, Кирилл Каганович, Юрий Стоянов, Андрей Стоянов, Сергей Бурунов, Владимир Епифанцев, Роман Мадянов, Екатерина Соломатина-О фильме:
Офисный планктон — опасный зверь, если его разозлить. Трое менеджеров-неудачников объединяются в почти преступную группировку в попытке свергнуть обнаглевшего начальника, который безбожно обворовывает компанию. Друзья разрабатывают экстремальный план, как выкрасть 50 миллионов у босса и восстановить справедливость. Но как это бывает у новичков — всё идёт не по плану. Настоящим хозяином мешка с деньгами оказывается совсем не тот, на кого охотились герои — и вот тут у них начинаются реальные проблемы с криминальным миром.-
| | КиноПоиск | Сэмпл |-Качество: WEB-DLRip [WEB_DL_1080p]
Формат файла: AVI
Видео: 720x304 (2.37:1), 24.000 fps, XviD build 67 ~1962 kbps avg, 0.37 bit/pixel
Аудио: 48 kHz, AC3 Dolby Digital, 3/2 (L,C,R,l,r) + LFE ch, ~384 kbps avg-
- MediaInfo">

Скриншоты - MediaInfo

Полное имя                               : D:\Vse_ili_ni4ego_2018_WEB-DLRip_iT_by_Dalemake.avi
Формат файла                                   : AVI
Формат файла/Информация                        : Audio Video Interleave
Размер файла                             : 1,46 Гбайт
Продолжительность                        : 1 ч. 28 м.
Общий поток                              : 2356 Кбит/сек
Программа кодирования                    : VirtualDubMod 1.5.10.3 | www.virtualdub-fr.org || (build 2550/release)
Библиотека кодирования                   : VirtualDubMod build 2550/release
Видео
Идентификатор                            : 0
Формат файла                                   : MPEG-4 Visual
Профиль формата                          : Advanced Simple@L5
Параметр BVOP формата                    : 1
Параметр QPel формата                    : Нет
Параметр GMC формата                     : Без точки перехода
Параметр матрицы формата                 : Выборочная
Идентификатор кодека                     : XVID
Идентификатор кодека/Подсказка           : XviD
Продолжительность                        : 1 ч. 28 м.
Битрейт                                  : 1963 Кбит/сек
Ширина                                   : 720 пикселей
Высота                                   : 304 пикселя
Соотношение сторон                       : 2,35:1
Частота кадров                           : 24,000 кадра/сек
Цветовое пространство                    : YUV
Субдискретизация насыщенности            : 4:2:0
Битовая глубина                          : 8 бит
Тип развёртки                            : Прогрессивная
Метод сжатия                             : С потерями
Бит/(Пиксели*Кадры)                      : 0.374
Размер потока                            : 1,22 Гбайт (83%)
Библиотека кодирования                   : XviD 67
Аудио
Идентификатор                            : 1
Формат файла                                   : AC-3
Формат файла/Информация                        : Audio Coding 3
Расширение режима                        : CM (complete main)
Параметр Endianness формата              : Big
Идентификатор кодека                     : 2000
Продолжительность                        : 1 ч. 28 м.
Вид битрейта                             : Постоянный
Битрейт                                  : 384 Кбит/сек
Каналы                                   : 6 каналов
Расположение каналов                     : Front: L C R, Side: L R, LFE
Частота                                  : 48,0 КГц
Битовая глубина                          : 16 бит
Метод сжатия                             : С потерями
Размер потока                            : 244 Мбайт (16%)
Выравнивание                             : Разделение по промежуткам
Продолжительность промежутка             : 42  мс. (1,00 видеокадр)
Время предзагрузки промежутка            : 500  мс.
-


[chi5o.com]_t_5670125.torrent
Торрент: Зарегистрирован ·  [ 2019-01-13 02:03 ] ·  e1bd1951f1b434e53c20965ea1cf6f18cf8042b6

15 KB

Статус: проверено
Скачан: 0 раз
Размер: 1.46 GB
Оценка: 
(Голосов: 0)
Сказали спасибо: 0  Спасибо
Похожие темы
[Профиль]    [ЛС]
Показать сообщения:    
Ответить на тему

Текущее время: Сегодня 22:23

Часовой пояс: GMT + 7



Вы не можете начинать темы
Вы не можете отвечать на сообщения
Вы не можете редактировать свои сообщения
Вы не можете удалять свои сообщения
Вы не можете голосовать в опросах
Вы не можете прикреплять файлы к сообщениям
Вы можете скачивать файлы


Robert Ludlum & Eric Van Lustbader - La revanche dans la peau (Jason Bourne T11) | Remontoir Montres Automatique Tourne Coffret Watchwinder Boîte en Bois Affichage | Lee Ingleby