Один дома 4 / Home Alone 4: Taking Back the House (Род Дэниел / Rod Daniel) [2002, США, комедия, криминал, семейный, HDTVRip] AVO (Визгунов)

Ответить на тему
Статистика раздачи [Обновить пиров]
Размер:  1.37 GB   |    Зарегистрирован:  7 дней   |    Скачан:  0 раз

Полного источника не было: Никогда

 
   
 
 
 
Автор Сообщение

chi5o.com

Создавать темы 13-Янв-2019 02:03

[Цитировать]

ВСЕХ С НОВЫМ 2019 ГОДОМ! -Один дома 4 / Home Alone 4: Taking Back the House
Год выхода: 2002
Страна: США
Жанр: комедия, криминал, семейный
Продолжительность: 01:20:13
Перевод: Авторский (одноголосый закадровый) - Сергей Визгунов
Субтитры: нет
Режиссер: Род Дэниел / Rod Daniel
В ролях: Френч Стюарт (Marv Merchants), Эрик Авари (Prescott), Барбара Бэбкок (Molly), Джейсон Бех (Peter McCallister), Клер Кэри (Kate McCallister), Джоэнна Гоуинг (Natalie), Мисси Пайл (Vera), Гидеон Джейкобс (Buzz McCallister), Челси Руссо (Megan McCallister), Майк Вейнберг (Kevin McCallister)-Мировая премьера: 3 ноября 2002-Описание: Мечта любого маленького хулигана — это когда родителей нет дома и в твоем распоряжении целый дом! Для Кевина МакКалистера, нашего старого знакомого, эти мечты сбываются. На этот раз он готовится встретить Рождество, ожидая родителей и гостей в огромном супердоме, напичканном самыми невероятными техническими устройствами. И поверьте, праздник будет потрясающим! Особенно для горе-бандитов, задумавших проникнуть в дом. Ведь они еще не знают, с кем им придется иметь дело…-Огромная благодарность:
[url=profile.php?mode=viewprofile&u=4305293]miha2154[/url] - видеоряд
[url=profile.php?mode=viewprofile&u=760904]RoxMarty[/url] - перевод Визгунова, оцифрованный со своей видеокассеты.
[url=profile.php?mode=viewprofile&u=3190918]JUSTKANT[/url] - обработка звука и синхронизация перевода.-Рейтинг

MPAA: PG - Рекомендуется присутствие родителей.-Качество видео: HDTVRip
Формат файла: AVI -> //Сэмпл//
Видео: XviD, 720x400 (16:9), 25.000 fps, 2241 kbps avg
Аудио:
1 - 48 khz, AC3 Dolby Digital, 2/0 (L,R) ch, ~192 kbps [Визгунов] VHSRip-ОБНОВЛЕНИЕ РЕЛИЗА ОТ 31.12.2018.
Заменён видеоряд
Добавлен в раздачу перевод Визгунова.

Просьба перескачать торрент!

MediaInfo

General
Complete name : D:\ТОРРЕНТЫ (Фильмы для рутрекера)\Один дома 4 (Home Alone 4) 2002 - Визгунов.avi
Format : AVI
Format/Info : Audio Video Interleave
File size : 1.37 GiB
Duration : 1 h 20 min
Overall bit rate : 2 443 kb/s
Movie name : Один дома 4 / Home Alone 4 (Визгунов)
Director : JUSTKANT
Writing application : VirtualDubMod 1.5.10.2 (build 2540/release)
Copyright : Качество звука: VHSRip (RoxMarty)
Video
ID : 0
Format : MPEG-4 Visual
Format profile : Advanced Simple@L5
Format settings : BVOP2
Format settings, BVOP : 2
Format settings, QPel : No
Format settings, GMC : No warppoints
Format settings, Matrix : Default (MPEG)
Codec ID : XVID
Codec ID/Hint : XviD
Duration : 1 h 20 min
Bit rate : 2 241 kb/s
Width : 720 pixels
Height : 400 pixels
Display aspect ratio : 16:9
Frame rate : 25.000 FPS
Color space : YUV
Chroma subsampling : 4:2:0
Bit depth : 8 bits
Scan type : Progressive
Compression mode : Lossy
Bits/(Pixel*Frame) : 0.311
Stream size : 1.26 GiB (92%)
Writing library : XviD 1.1.0 (UTC 2005-11-22)
Audio
ID : 1
Format : AC-3
Format/Info : Audio Coding 3
Commercial name : Dolby Digital
Codec ID : 2000
Duration : 1 h 20 min
Bit rate mode : Constant
Bit rate : 192 kb/s
Channel(s) : 2 channels
Channel layout : L R
Sampling rate : 48.0 kHz
Frame rate : 31.250 FPS (1536 SPF)
Bit depth : 16 bits
Compression mode : Lossy
Stream size : 110 MiB (8%)
Alignment : Split accross interleaves
Interleave, duration : 40 ms (1.00 video frame)
Interleave, preload duratio : 500 ms
Title : Сергей Визгунов: VHSRip (пиратка)
Service kind : Complete Main

Скриншоты



[chi5o.com]_t_4695857.torrent
Торрент: Зарегистрирован ·  [ 2019-01-13 02:03 ] ·  759376849337ddfecde34fa8df3806a7441108be

14 KB

Статус: проверено
Скачан: 0 раз
Размер: 1.37 GB
Оценка: 
(Голосов: 0)
Сказали спасибо: 0  Спасибо
Похожие темы
[Профиль]    [ЛС]
Показать сообщения:    
Ответить на тему

Текущее время: Сегодня 22:15

Часовой пояс: GMT + 7



Вы не можете начинать темы
Вы не можете отвечать на сообщения
Вы не можете редактировать свои сообщения
Вы не можете удалять свои сообщения
Вы не можете голосовать в опросах
Вы не можете прикреплять файлы к сообщениям
Вы можете скачивать файлы


1x27 SuperCampeones 2018 | Robert Levey II | dj njebza ft shota,