Один дома 3 / Home Alone 3 (Раджа Госнелл / Raja Gosnell) [1997, США, боевик, комедия, криминал, семейный, WEB-DLRip] MVO (ОРТ) + DVO (Премьер Видео Фильм) + DVO (Лазер Видео) + AVO (Визгунов) + VO (Неизвестный-1) + VO (Неизвестный-2)

Ответить на тему
Статистика раздачи [Обновить пиров]
Размер:  1.87 GB   |    Зарегистрирован:  6 дней   |    Скачан:  0 раз

Полного источника не было: Никогда

 
   
 
 
 
Автор Сообщение

chi5o.com

Создавать темы 13-Янв-2019 02:03

[Цитировать]

ВСЕХ С НАСТУПАЮЩИМ НОВЫМ 2019 ГОДОМ! -Один дома 3 / Home Alone 3-Каждый встречает Рождество по-своему.
Но если вы грабители - опасайтесь компании семилетнего ребёнка.
- Год выхода: 1997
Страна: США
Жанр: боевик, комедия, криминал, семейный
Продолжительность: 01:42:24
Перевод: Профессиональный (многоголосый закадровый) - ОРТ
Перевод 2: Профессиональный (двухголосый закадровый) - Премьер Видео Фильм
Текст читают: Александр Клюквин и Людмила Ильина.
Перевод 3: Профессиональный (двухголосый закадровый) - Лазер Видео
Текст читают: Александр Новиков и Ирина Маликова.
Перевод 4: Авторский (одноголосый закадровый) - Сергей Визгунов (экранка)
Перевод 5: Одноголосый закадровый - Неизвестный-1
Перевод 6: Одноголосый закадровый - Неизвестный-2
Субтитры: нет
Режиссер: Раджа Госнелл / Raja Gosnell
В ролях: Алекс Д. Линц (Alex Pruitt), Олек Крупа (Petr Beaupre), Хэвиленд Моррис (Karen Pruitt), Дэвид Торнтон (Earl Unger), Скарлетт Йоханссон (Molly Pruitt), Ленни фон Долен (Burton Jernigan), Мэриэн Селдес (Mrs. Hess), Риа Килстедт (Alice Ribbons), Кевин Килнер (Jack Pruitt), Сет Смит (Stan Pruitt)-Мировая премьера: 12 декабря 1997-Описание: Трое мужчин и женщина купили украденную для них новейшую микросхему, способную нейтрализовать всю систему противокосмической обороны. Положили ее в игрушечную машину, ее — в пакет с надписью «Parisian». В аэропорту обнаружилось, что в пакете игрушки нет, а вокруг ходят люди точно с такими же пакетами. Стали искать. В результате поисков пришлось лететь за пакетом в Чикаго. Самые догадливые зрители уже, наверное, догадались, в чей дом привезла пожилая дама пакет с игрушкой. Ну, конечно же, туда, где живет маленький милый мальчик. Все знакомо? Да, только на этот раз вместо незадачливых бедолаг-неудачников против мальчугана, заболевшего скарлатиной и оставшегося дома, выступают настоящие профессионалы, люди очень и очень опасные. А другие серьезные люди, у которых микросхема пропала, тоже сидеть без дела не намерены.-Огромная благодарность:
[url=profile.php?mode=viewprofile&u=9717201]lumez[/url] - WEB-DL 1080p
[url=profile.php?mode=viewprofile&u=2901192]novikov79[/url] - перевод ОРТ, записанный с Первого канала.
[url=profile.php?mode=viewprofile&u=760904]RoxMarty[/url]:
1 - перевод Премьер Видео Фильм, оцифрованный со своей лицензионной видеокассеты
2 - перевод Неизвестного-2, оцифрованный со своей видеокассеты.
[url=profile.php?mode=viewprofile&u=20564]Fikaloid[/url] - перевод Визгунова, оцифрованный со своей видеокассеты.
[url=profile.php?mode=viewprofile&u=1949950]s___[/url] - перевод Неизвестного-1, оцифрованный со своей видеокассеты.
[url=profile.php?mode=viewprofile&u=3190918]JUSTKANT[/url] - обработка звука и синхронизация переводов.-На русский язык фильм озвучен кинокомпанией "Селена Интернешнл" по заказу Общественного Российского Телевидения.
Текст читают Андрей Казанцев, Михаил Тихонов, Виктор Петров и Ольга Гаспарова.-Рейтинг

MPAA: PG - Рекомендуется присутствие родителей.-Качество видео: WEB-DLRip
Формат файла: AVI -> //Сэмпл//
Видео: XviD, 720x400 (16:9), 23.976 fps, 1448 kbps avg
Аудио:
1 - 48 khz, AC3 Dolby Digital, 2/0 (L,R) ch, ~192 kbps [ОРТ] TVRip
2 - 48 khz, AC3 Dolby Digital, 2/0 (L,R) ch, ~192 kbps [Премьер Видео Фильм] VHSRip
3 - 48 khz, AC3 Dolby Digital, 2/0 (L,R) ch, ~192 kbps [Лазер Видео] VHSRip
4 - 48 khz, AC3 Dolby Digital, 2/0 (L,R) ch, ~192 kbps [Визгунов] VHSRip (отдельно)
5 - 48 khz, AC3 Dolby Digital, 2/0 (L,R) ch, ~192 kbps [Неизвестный-1] VHSRip (отдельно)
6 - 48 khz, AC3 Dolby Digital, 2/0 (L,R) ch, ~192 kbps [Неизвестный-2] VHSRip (отдельно)-ОБНОВЛЕНИЕ РЕЛИЗА ОТ 31.12.2018.
Переводы Неизвестных заменены на такие же, но немного лучшие по качеству звука.
Добавлены в раздачу переводы ОРТ, Премьер Видео Фильм и Визгунова, отличающийся по качеству звука от таких же переводов на трекере.
Все доказательства в сэмпле, слушайте и сами сравнивайте. Выбирайте тот перевод, который вам больше всего понравится.

Просьба перескачать торрент!

Источник: Torrentc

Источник: Torrentc со старым рипом -
http://Torrentc/forum/viewtopic.php?t=4703142 -

MediaInfo

General
Complete name : D:\ТОРРЕНТЫ (Фильмы для рутрекера)\Один дома 3\Один дома 3 (ОРТ + Премьер Видео Фильм + Лазер Видео).avi
Format : AVI
Format/Info : Audio Video Interleave
File size : 1.46 GiB
Duration : 1 h 42 min
Overall bit rate : 2 043 kb/s
Movie name : Один дома 3 / Home Alone 3 (ОРТ + Премьер Видео Фильм + Лазер Видео)
Director : JUSTKANT
Writing application : VirtualDubMod 1.5.10.2 (build 2540/release)
Copyright : Качество звука: ОРТ - TVRip by Первый канал (novikov79), Премьер Видео Фильм - VHSRip (RoxMarty) и Лазер Видео - VHSRip (lumez)
Video
ID : 0
Format : MPEG-4 Visual
Format profile : Advanced Simple@L5
Format settings : BVOP1 / Custom Matrix
Format settings, BVOP : 1
Format settings, QPel : No
Format settings, GMC : No warppoints
Format settings, Matrix : Custom
Codec ID : XVID
Codec ID/Hint : XviD
Duration : 1 h 42 min
Bit rate : 1 448 kb/s
Width : 720 pixels
Height : 400 pixels
Display aspect ratio : 16:9
Frame rate : 23.976 (24000/1001) FPS
Color space : YUV
Chroma subsampling : 4:2:0
Bit depth : 8 bits
Scan type : Progressive
Compression mode : Lossy
Bits/(Pixel*Frame) : 0.210
Stream size : 1.04 GiB (71%)
Writing library : XviD 73
Audio #1
ID : 1
Format : AC-3
Format/Info : Audio Coding 3
Commercial name : Dolby Digital
Codec ID : 2000
Duration : 1 h 42 min
Bit rate mode : Constant
Bit rate : 192 kb/s
Channel(s) : 2 channels
Channel layout : L R
Sampling rate : 48.0 kHz
Frame rate : 31.250 FPS (1536 SPF)
Bit depth : 16 bits
Compression mode : Lossy
Stream size : 141 MiB (9%)
Alignment : Split accross interleaves
Interleave, duration : 42 ms (1.00 video frame)
Interleave, preload duratio : 500 ms
Title : ОРТ: Андрей Казанцев, Михаил Тихонов, Виктор Петров и Ольга Гаспарова
Service kind : Complete Main
Audio #2
ID : 2
Format : AC-3
Format/Info : Audio Coding 3
Commercial name : Dolby Digital
Codec ID : 2000
Duration : 1 h 42 min
Bit rate mode : Constant
Bit rate : 192 kb/s
Channel(s) : 2 channels
Channel layout : L R
Sampling rate : 48.0 kHz
Frame rate : 31.250 FPS (1536 SPF)
Bit depth : 16 bits
Compression mode : Lossy
Stream size : 141 MiB (9%)
Alignment : Split accross interleaves
Interleave, duration : 42 ms (1.00 video frame)
Interleave, preload duratio : 500 ms
Title : ПРЕМЬЕР ВИДЕО ФИЛЬМ: Александр Клюквин и Людмила Ильина
Service kind : Complete Main
Audio #3
ID : 3
Format : AC-3
Format/Info : Audio Coding 3
Commercial name : Dolby Digital
Codec ID : 2000
Duration : 1 h 42 min
Bit rate mode : Constant
Bit rate : 192 kb/s
Channel(s) : 2 channels
Channel layout : L R
Sampling rate : 48.0 kHz
Frame rate : 31.250 FPS (1536 SPF)
Bit depth : 16 bits
Compression mode : Lossy
Stream size : 141 MiB (9%)
Alignment : Split accross interleaves
Interleave, duration : 42 ms (1.00 video frame)
Interleave, preload duratio : 500 ms
Title : ЛАЗЕР ВИДЕО: Александр Новиков и Мария Овчинникова Ирина Маликова
Service kind : Complete Main

Скриншот c названием фильма

Скриншоты



[chi5o.com]_t_4455009.torrent
Торрент: Зарегистрирован ·  [ 2019-01-13 02:03 ] ·  e56b3db81f7702eabe2695649a92918f5a7a11d8

20 KB

Статус: проверено
Скачан: 0 раз
Размер: 1.87 GB
Оценка: 
(Голосов: 0)
Сказали спасибо: 0  Спасибо
Похожие темы
[Профиль]    [ЛС]
Показать сообщения:    
Ответить на тему

Текущее время: Сегодня 01:55

Часовой пояс: GMT + 7



Вы не можете начинать темы
Вы не можете отвечать на сообщения
Вы не можете редактировать свои сообщения
Вы не можете удалять свои сообщения
Вы не можете голосовать в опросах
Вы не можете прикреплять файлы к сообщениям
Вы можете скачивать файлы


3DS - ROM Hacking, Translations and Utilities | DOWNLOAD | Ajouter au panier