(Retro, Pop) [CD] Фотографии любимых (Песни на стихи Владимира Харитонова) [1998, Russia, MEL CD 60 00577] - 1998, FLAC (image+.cue), lossless

Ответить на тему
Статистика раздачи [Обновить пиров]
Размер:  473 MB   |    Зарегистрирован:  8 дней   |    Скачан:  0 раз

Полного источника не было: Никогда

 
   
 
 
 
Автор Сообщение

chi5o.com

Создавать темы 12-Янв-2019 22:10

[Цитировать]

Фотографии любимых (Песни на стихи Владимира Харитонова)- Жанр: Retro, Pop
Страна: СССР
Год выхода альбома: 1998
Год выхода диска: 1998
Производитель диска: Россия
Аудио кодек: FLAC
Тип рипа: image+.cue
Битрейт аудио: lossless
Продолжительность: 75:48
Рип: собственный
Наличие сканов: да
Треклист:
01. Остановите музыку (Валерий Павлов) (03:57)
02. Листопад (Валерий Ободзинский) (03:06)
03. Налетели вдруг дожди (Вадим Мулерман) (03:08)
04. Как прекрасен этот мир (Юрий Антонов) (03:56)
05. Разлуки (Анатолий Днепров) (06:23)
06. Всё, что было без тебя (Алла Пугачёва) (03:10)
07. Здравствуй (Яак Йоала) (05:19)
08. В синем сумраке (Анатолий Днепров) (05:24)
09. У той горы (ВИА "Весёлые ребята") (03:55)
10. Листья закружат (ВИА "Поющие сердца") (03:15)
11. Фотографии любимых (Яак Йоала) (03:55)
12. Мы от любви зависим (Валерий Ободзинский) (03:55)
13. Легко влюбиться (ВИА "Весёлые ребята") (02:38)
14. Мы с тобою танцуем (Игорь Иванов) (03:15)
15. Не забывай (Яак Йоала) (04:11)
16. Школьная пора (ВИА "Весёлые ребята") (03:37)
17. Стучат колёса (Группа Стаса Намина) (03:07)
18. Последний день (Анатолий Днепров) (05:21)
19. Рано прощаться (Группа Стаса Намина) (04:16)
Доп. информация:
Лейбл: МЕЛОДИЯ
Каталожный номер: MEL CD 60 00577
Матрица: UL 98519

log

Exact Audio Copy V1.1 from 23. June 2015
EAC extraction logfile from 20. September 2017, 10:48
Сборник / Фотографии любимых (Песни на стихи Владимира Харитонова) [MEL CD 60 00577]
Used drive : TSSTcorpDVD+-RW SU-208GB Adapter: 1 ID: 0
Read mode : SecureUtilize accurate stream : YesDefeat audio cache : YesMake use of C2 pointers : No
Read offset correction : 6Overread into Lead-In and Lead-Out : NoFill up missing offset samples with silence : YesDelete leading and trailing silent blocks : NoNull samples used in CRC calculations : YesUsed interface : Native Win32 interface for Win NT & 2000
Used output format : Internal WAV RoutinesSample format : 44.100 Hz; 16 Bit; Stereo
TOC of the extracted CD
Track | Start | Length | Start sector | End sector --------------------------------------------------------- 1 | 0:00.05 | 3:56.47 | 5 | 17751 2 | 3:56.52 | 3:06.05 | 17752 | 31706 3 | 7:02.57 | 3:08.23 | 31707 | 45829 4 | 10:11.05 | 3:56.00 | 45830 | 63529 5 | 14:07.05 | 6:22.52 | 63530 | 92231 6 | 20:29.57 | 3:10.10 | 92232 | 106491 7 | 23:39.67 | 5:19.15 | 106492 | 130431 8 | 28:59.07 | 5:23.73 | 130432 | 154729 9 | 34:23.05 | 3:54.60 | 154730 | 172339 10 | 38:17.65 | 3:14.72 | 172340 | 186961 11 | 41:32.62 | 3:55.23 | 186962 | 204609 12 | 45:28.10 | 3:55.17 | 204610 | 222251 13 | 49:23.27 | 2:38.25 | 222252 | 234126 14 | 52:01.52 | 3:15.35 | 234127 | 248786 15 | 55:17.12 | 4:11.13 | 248787 | 267624 16 | 59:28.25 | 3:36.55 | 267625 | 283879 17 | 63:05.05 | 3:06.62 | 283880 | 297891 18 | 66:11.67 | 5:20.73 | 297892 | 321964 19 | 71:32.65 | 4:15.40 | 321965 | 341129
Range status and errors
Selected range
Filename D:\Фотографии любимых (Песни на стихи Владимира Харитонова) [MEL CD 60 00577].wav
Peak level 100.0 % Extraction speed 4.6 X Range quality 99.9 % Test CRC FC6393AE Copy CRC FC6393AE Copy OK
No errors occurred
AccurateRip summary
Track 1 accurately ripped (confidence 1) [88ACB97A] (AR v1)Track 2 accurately ripped (confidence 1) [30DD7286] (AR v1)Track 3 accurately ripped (confidence 1) [DEFBDB8C] (AR v1)Track 4 accurately ripped (confidence 1) [6EAFF339] (AR v1)Track 5 accurately ripped (confidence 1) [1C2EFB8C] (AR v1)Track 6 accurately ripped (confidence 1) [26395D63] (AR v1)Track 7 accurately ripped (confidence 1) [022E9B5C] (AR v1)Track 8 accurately ripped (confidence 1) [94843429] (AR v1)Track 9 accurately ripped (confidence 1) [4BD5279D] (AR v1)Track 10 accurately ripped (confidence 1) [B3C1D7A4] (AR v1)Track 11 accurately ripped (confidence 1) [D09985BD] (AR v1)Track 12 accurately ripped (confidence 1) [106B3E65] (AR v1)Track 13 accurately ripped (confidence 1) [78D2CDDF] (AR v1)Track 14 accurately ripped (confidence 1) [1EAB12D7] (AR v1)Track 15 accurately ripped (confidence 1) [388C3201] (AR v1)Track 16 accurately ripped (confidence 1) [D7E1F688] (AR v1)Track 17 accurately ripped (confidence 1) [BD6FD4BC] (AR v1)Track 18 accurately ripped (confidence 1) [19BC7F9B] (AR v1)Track 19 accurately ripped (confidence 1) [93B4DA83] (AR v1)
All tracks accurately ripped
End of status report
---- CUETools DB Plugin V2.1.6
[CTDB TOCID: z6dsKy9SyF8aqf.hGu5RitG7bVk-] disk not present in databaseSubmit result: z6dsKy9SyF8aqf.hGu5RitG7bVk- has been uploaded
==== Log checksum 9AD3333A0976B1F8EC3460A05C889150D1FFCB73E9F5412B4BF9A84CFEA0FDE6 ====

cue

REM GENRE PopREM DATE 1998REM DISCID 1711C413REM COMMENT "ExactAudioCopy v1.1"PERFORMER "Сборник"TITLE "Фотографии любимых (Песни на стихи Владимира Харитонова) [MEL CD 60 00577]"FILE "Фотографии любимых (Песни на стихи Владимира Харитонова) [MEL CD 60 00577].flac" WAVE TRACK 01 AUDIO TITLE "Остановите музыку" PERFORMER "Валерий Павлов" INDEX 00 00:00:00 INDEX 01 00:00:05 TRACK 02 AUDIO TITLE "Листопад" PERFORMER "Валерий Ободзинский" INDEX 00 03:53:35 INDEX 01 03:56:52 TRACK 03 AUDIO TITLE "Налетели вдруг дожди" PERFORMER "Вадим Мулерман" INDEX 00 06:59:42 INDEX 01 07:02:57 TRACK 04 AUDIO TITLE "Как прекрасен этот мир" PERFORMER "Юрий Антонов" INDEX 00 10:08:37 INDEX 01 10:11:05 TRACK 05 AUDIO TITLE "Разлуки" PERFORMER "Анатолий Днепров" INDEX 00 14:03:70 INDEX 01 14:07:05 TRACK 06 AUDIO TITLE "Всё, что было без тебя" PERFORMER "Алла Пугачёва" INDEX 00 20:27:32 INDEX 01 20:29:57 TRACK 07 AUDIO TITLE "Здравствуй" PERFORMER "Яак Йоала" INDEX 00 23:35:67 INDEX 01 23:39:67 TRACK 08 AUDIO TITLE "В синем сумраке" PERFORMER "Анатолий Днепров" INDEX 00 28:56:25 INDEX 01 28:59:07 TRACK 09 AUDIO TITLE "У той горы" PERFORMER "ВИА ''Весёлые ребята''" INDEX 00 34:21:70 INDEX 01 34:23:05 TRACK 10 AUDIO TITLE "Листья закружат" PERFORMER "ВИА ''Поющие сердца''" INDEX 00 38:14:45 INDEX 01 38:17:65 TRACK 11 AUDIO TITLE "Фотографии любимых" PERFORMER "Яак Йоала" INDEX 00 41:28:65 INDEX 01 41:32:62 TRACK 12 AUDIO TITLE "Мы от любви зависим" PERFORMER "Валерий Ободзинский" INDEX 00 45:25:10 INDEX 01 45:28:10 TRACK 13 AUDIO TITLE "Легко влюбиться" PERFORMER "ВИА ''Весёлые ребята''" INDEX 00 49:19:22 INDEX 01 49:23:27 TRACK 14 AUDIO TITLE "Мы с тобою танцуем" PERFORMER "Игорь Иванов" INDEX 00 51:58:50 INDEX 01 52:01:52 TRACK 15 AUDIO TITLE "Не забывай" PERFORMER "Яак Йоала" INDEX 00 55:13:65 INDEX 01 55:17:12 TRACK 16 AUDIO TITLE "Школьная пора" PERFORMER "ВИА ''Весёлые ребята''" INDEX 00 59:25:10 INDEX 01 59:28:25 TRACK 17 AUDIO TITLE "Стучат колёса" PERFORMER "Группа Стаса Намина" INDEX 00 63:01:17 INDEX 01 63:05:05 TRACK 18 AUDIO TITLE "Последний день" PERFORMER "Анатолий Днепров" INDEX 00 66:09:00 INDEX 01 66:11:67 TRACK 19 AUDIO TITLE "Рано прощаться" PERFORMER "Группа Стаса Намина" INDEX 00 71:29:18 INDEX 01 71:32:65

DR=12

foobar2000 1.3.16 / Dynamic Range Meter 1.1.1log date: 2019-01-08 17:53:13
--------------------------------------------------------------------------------Analyzed: Сборник / Фотографии любимых (Песни на стихи Владимира Харитонова) [MEL CD 60 00577]--------------------------------------------------------------------------------
DR Peak RMS Duration Track--------------------------------------------------------------------------------DR10 -2.23 dB -14.96 dB 3:57 01-Остановите музыкуDR11 -1.97 dB -16.14 dB 3:06 02-ЛистопадDR12 -2.04 dB -16.22 dB 3:08 03-Налетели вдруг дождиDR9 -1.78 dB -15.42 dB 3:56 04-Как прекрасен этот мирDR13 -0.80 dB -16.77 dB 6:23 05-РазлукиDR11 -2.18 dB -16.00 dB 3:10 06-Всё, что было без тебяDR14 -1.09 dB -17.16 dB 5:19 07-ЗдравствуйDR13 -1.43 dB -17.10 dB 5:24 08-В синем сумракеDR11 -2.03 dB -15.17 dB 3:55 09-У той горыDR10 -2.31 dB -14.21 dB 3:15 10-Листья закружатDR12 -0.64 dB -15.97 dB 3:55 11-Фотографии любимыхDR12 0.00 dB -15.27 dB 3:55 12-Мы от любви зависимDR13 -1.60 dB -16.07 dB 2:38 13-Легко влюбитьсяDR12 -2.32 dB -15.96 dB 3:15 14-Мы с тобою танцуемDR11 -3.55 dB -16.29 dB 4:11 15-Не забывайDR13 -0.75 dB -15.78 dB 3:37 16-Школьная пораDR11 -2.17 dB -14.29 dB 3:07 17-Стучат колёсаDR13 -0.80 dB -15.73 dB 5:21 18-Последний деньDR13 -0.92 dB -15.68 dB 4:16 19-Рано прощаться--------------------------------------------------------------------------------
Number of tracks: 19Official DR value: DR12
Samplerate: 44100 HzChannels: 2Bits per sample: 16Bitrate: 839 kbpsCodec: FLAC================================================================================


[chi5o.com]_t_5671474.torrent
Торрент: Зарегистрирован ·  [ 2019-01-12 22:07 ] ·  1401e56f9788e0cc9ec4a3e98ce8387a7e2723d2

20 KB

Статус: проверено
Скачан: 0 раз
Размер: 473 MB
Оценка: 
(Голосов: 0)
Сказали спасибо: 0  Спасибо
Похожие темы
[Профиль]    [ЛС]
Показать сообщения:    
Ответить на тему

Текущее время: Сегодня 19:00

Часовой пояс: GMT + 7



Вы не можете начинать темы
Вы не можете отвечать на сообщения
Вы не можете редактировать свои сообщения
Вы не можете удалять свои сообщения
Вы не можете голосовать в опросах
Вы не можете прикреплять файлы к сообщениям
Вы можете скачивать файлы


Southeast Asia | Watch Casse-noisette et les quatre royaumes BRrip French Film | Bionic Woman: Agentka przyszłości / Bionic Woman