(Roots reggae, Dub) [CD] The Travellers - Black Black Minds - 2005 (1977), FLAC (tracks+.cue), lossless

Ответить на тему
Статистика раздачи [Обновить пиров]
Размер:  319 MB   |    Зарегистрирован:  1 месяц 7 дней   |    Скачан:  0 раз

Полного источника не было: Никогда

 
   
 
 
 
Автор Сообщение

chi5o.com

Создавать темы 12-Янв-2019 22:08

[Цитировать]

The TravellersBlack Black Minds
Жанр: Roots reggae, Dub
Носитель: CD
Страна-производитель диска (релиза): UK
Год издания: 2005 (1977)
Издатель (лейбл): Pressure Sounds
Номер по каталогу: PSCD 49
Страна исполнителя (группы): Jamaica
Аудиокодек: FLAC (*.flac)
Тип рипа: tracks+.cue
Битрейт аудио: lossless
Продолжительность: 00:56:19
Источник (релизер): Собственныи Диск (Poupsicot88)
Наличие сканов в содержимом раздачи: нет

Треклист

01. Black Black Minds
02. Know Yourself
03. Jah Gave Us This World
04. Natty Dread at the Controls (feat. U Black)
05. False Leaders
06. Peace and Rest
07. Peace and Rest Version
08. The Girl I Left Behind
09. Tell Me Why
10. How Long
11. How Long Version
12. Poor Man Cry
13. Jammy's A Do It (feat. U Black)
14. Keep On Trying
15. Keep On Trying Version
16. We Got to Leave

Лог создания рипа

Exact Audio Copy V1.3 from 2. September 2016
EAC extraction logfile from 7. January 2019, 18:46
The Travellers / Black Black Minds
Used drive : PLEXTOR DVDR PX-891SA Adapter: 1 ID: 0
Read mode : SecureUtilize accurate stream : YesDefeat audio cache : YesMake use of C2 pointers : No
Read offset correction : 6Overread into Lead-In and Lead-Out : NoFill up missing offset samples with silence : YesDelete leading and trailing silent blocks : NoNull samples used in CRC calculations : YesUsed interface : Native Win32 interface for Win NT & 2000Gap handling : Appended to previous track
Used output format : User Defined EncoderSelected bitrate : 1024 kBit/sQuality : HighAdd ID3 tag : NoCommand line compressor : C:\Program Files (x86)\Exact Audio Copy\FLAC\FLAC.EXEAdditional command line options : -8 -V -T "ARTIST=%artist%" -T "TITLE=%title%" -T "ALBUM=%albumtitle%" -T "DATE=%year%" -T "TRACKNUMBER=%tracknr%" -T "GENRE=%genre%" -T "COMMENT=%comment%" -T "BAND=%albuminterpret%" -T "ALBUMARTIST=%albuminterpret%" -T "COMPOSER=%composer%" %haslyrics%--tag-from-file=LYRICS="%lyricsfile%"%haslyrics% -T "DISCNUMBER=%cdnumber%" -T "TOTALDISCS=%totalcds%" -T "TOTALTRACKS=%numtracks%" %hascover%--picture="%coverfile%"%hascover% %source% -o %dest%
TOC of the extracted CD
Track | Start | Length | Start sector | End sector --------------------------------------------------------- 1 | 0:00.00 | 2:59.07 | 0 | 13431 2 | 2:59.07 | 3:38.18 | 13432 | 29799 3 | 6:37.25 | 2:34.66 | 29800 | 41415 4 | 9:12.16 | 3:16.37 | 41416 | 56152 5 | 12:28.53 | 3:28.05 | 56153 | 71757 6 | 15:56.58 | 2:52.50 | 71758 | 84707 7 | 18:49.33 | 2:57.52 | 84708 | 98034 8 | 21:47.10 | 3:27.58 | 98035 | 113617 9 | 25:14.68 | 3:44.13 | 113618 | 130430 10 | 28:59.06 | 3:39.18 | 130431 | 146873 11 | 32:38.24 | 3:37.74 | 146874 | 163222 12 | 36:16.23 | 3:10.49 | 163223 | 177521 13 | 39:26.72 | 3:47.28 | 177522 | 194574 14 | 43:14.25 | 3:35.01 | 194575 | 210700 15 | 46:49.26 | 2:17.02 | 210701 | 220977 16 | 49:06.28 | 7:13.45 | 220978 | 253497
Track 1
Filename H:\Torrents\Travellers, The\The Travellers (1977-2005) [PSCD 49] Black Black Minds\01. Black Black Minds.wav
Pre-gap length 0:00:02.00
Peak level 100.0 % Extraction speed 4.9 X Track quality 100.0 % Test CRC C140E2B0 Copy CRC C140E2B0 Accurately ripped (confidence 3) [36897520] (AR v2) Copy OK
Track 2
Filename H:\Torrents\Travellers, The\The Travellers (1977-2005) [PSCD 49] Black Black Minds\02. Know Yourself.wav
Pre-gap length 0:00:01.58
Peak level 100.0 % Extraction speed 5.5 X Track quality 100.0 % Test CRC 86C1B821 Copy CRC 86C1B821 Accurately ripped (confidence 3) [3F2D15C4] (AR v2) Copy OK
Track 3
Filename H:\Torrents\Travellers, The\The Travellers (1977-2005) [PSCD 49] Black Black Minds\03. Jah Gave Us This World.wav
Pre-gap length 0:00:01.58
Peak level 98.7 % Extraction speed 5.6 X Track quality 100.0 % Test CRC 87DFACAE Copy CRC 87DFACAE Accurately ripped (confidence 3) [0126A195] (AR v2) Copy OK
Track 4
Filename H:\Torrents\Travellers, The\The Travellers (1977-2005) [PSCD 49] Black Black Minds\04. Natty Dread at the Controls.wav
Pre-gap length 0:00:01.58
Peak level 98.6 % Extraction speed 6.2 X Track quality 100.0 % Test CRC D0E07905 Copy CRC D0E07905 Accurately ripped (confidence 3) [4B3DFEC7] (AR v2) Copy OK
Track 5
Filename H:\Torrents\Travellers, The\The Travellers (1977-2005) [PSCD 49] Black Black Minds\05. False Leaders.wav
Pre-gap length 0:00:01.58
Peak level 98.6 % Extraction speed 6.6 X Track quality 100.0 % Test CRC 85DBE4F0 Copy CRC 85DBE4F0 Accurately ripped (confidence 3) [1F175052] (AR v2) Copy OK
Track 6
Filename H:\Torrents\Travellers, The\The Travellers (1977-2005) [PSCD 49] Black Black Minds\06. Peace and Rest.wav
Pre-gap length 0:00:01.58
Peak level 98.6 % Extraction speed 6.7 X Track quality 100.0 % Test CRC 09437113 Copy CRC 09437113 Accurately ripped (confidence 3) [6F460DF6] (AR v2) Copy OK
Track 7
Filename H:\Torrents\Travellers, The\The Travellers (1977-2005) [PSCD 49] Black Black Minds\07. Peace and Rest Version.wav
Pre-gap length 0:00:01.58
Peak level 98.7 % Extraction speed 7.0 X Track quality 100.0 % Test CRC FB778B51 Copy CRC FB778B51 Accurately ripped (confidence 3) [4E03A94D] (AR v2) Copy OK
Track 8
Filename H:\Torrents\Travellers, The\The Travellers (1977-2005) [PSCD 49] Black Black Minds\08. The Girl I Left Behind.wav
Pre-gap length 0:00:01.58
Peak level 98.6 % Extraction speed 7.5 X Track quality 100.0 % Test CRC F9FFF541 Copy CRC F9FFF541 Accurately ripped (confidence 3) [B1986C88] (AR v2) Copy OK
Track 9
Filename H:\Torrents\Travellers, The\The Travellers (1977-2005) [PSCD 49] Black Black Minds\09. Tell Me Why.wav
Pre-gap length 0:00:01.58
Peak level 98.7 % Extraction speed 8.0 X Track quality 100.0 % Test CRC 67FE3DCD Copy CRC 67FE3DCD Accurately ripped (confidence 3) [59CE0901] (AR v2) Copy OK
Track 10
Filename H:\Torrents\Travellers, The\The Travellers (1977-2005) [PSCD 49] Black Black Minds\10. How Long.wav
Pre-gap length 0:00:01.58
Peak level 100.0 % Extraction speed 8.3 X Track quality 100.0 % Test CRC 8A91615F Copy CRC 8A91615F Accurately ripped (confidence 3) [48741271] (AR v2) Copy OK
Track 11
Filename H:\Torrents\Travellers, The\The Travellers (1977-2005) [PSCD 49] Black Black Minds\11. How Long Version.wav
Pre-gap length 0:00:01.58
Peak level 100.0 % Extraction speed 8.6 X Track quality 100.0 % Test CRC 09AC9448 Copy CRC 09AC9448 Accurately ripped (confidence 3) [B3D22912] (AR v2) Copy OK
Track 12
Filename H:\Torrents\Travellers, The\The Travellers (1977-2005) [PSCD 49] Black Black Minds\12. Poor Man Cry.wav
Pre-gap length 0:00:01.58
Peak level 98.7 % Extraction speed 8.7 X Track quality 100.0 % Test CRC 5B51C621 Copy CRC 5B51C621 Accurately ripped (confidence 3) [32DC8428] (AR v2) Copy OK
Track 13
Filename H:\Torrents\Travellers, The\The Travellers (1977-2005) [PSCD 49] Black Black Minds\13. Jammy's A Do It.wav
Pre-gap length 0:00:01.58
Peak level 98.7 % Extraction speed 7.4 X Track quality 99.9 % Test CRC 9ACA0C33 Copy CRC 9ACA0C33 Accurately ripped (confidence 3) [D502368D] (AR v2) Copy OK
Track 14
Filename H:\Torrents\Travellers, The\The Travellers (1977-2005) [PSCD 49] Black Black Minds\14. Keep On Trying.wav
Pre-gap length 0:00:01.58
Peak level 100.0 % Extraction speed 9.4 X Track quality 100.0 % Test CRC 484E33A6 Copy CRC 484E33A6 Accurately ripped (confidence 3) [91974CEC] (AR v2) Copy OK
Track 15
Filename H:\Torrents\Travellers, The\The Travellers (1977-2005) [PSCD 49] Black Black Minds\15. Keep On Trying Version.wav
Pre-gap length 0:00:01.58
Peak level 100.0 % Extraction speed 8.9 X Track quality 100.0 % Test CRC F9FE63F6 Copy CRC F9FE63F6 Accurately ripped (confidence 3) [3809071B] (AR v2) Copy OK
Track 16
Filename H:\Torrents\Travellers, The\The Travellers (1977-2005) [PSCD 49] Black Black Minds\16. We Got to Leave.wav
Pre-gap length 0:00:01.58
Peak level 98.7 % Extraction speed 9.4 X Track quality 99.9 % Test CRC 11DA3207 Copy CRC 11DA3207 Accurately ripped (confidence 3) [A3AB22A1] (AR v2) Copy OK
All tracks accurately ripped
No errors occurred
End of status report
==== Log checksum 01910B9AA94E8A6ED1558A4D3BC913B3FC9A937CF80765FD7F1C5CA146F4E421 ====

Содержание индексной карты (.CUE)

REM GENRE ReggaeREM DATE 2005REM DISCID EC0D3310REM COMMENT "ExactAudioCopy v1.3"PERFORMER "The Travellers"TITLE "Black Black Minds"REM COMPOSER ""FILE "01. Black Black Minds.wav" WAVE TRACK 01 AUDIO TITLE "Black Black Minds" PERFORMER "The Travellers" REM COMPOSER "" INDEX 01 00:00:00 TRACK 02 AUDIO TITLE "Know Yourself" PERFORMER "The Travellers" REM COMPOSER "" INDEX 00 02:57:24FILE "02. Know Yourself.wav" WAVE INDEX 01 00:00:00 TRACK 03 AUDIO TITLE "Jah Gave Us This World" PERFORMER "The Travellers" REM COMPOSER "" INDEX 00 03:36:35FILE "03. Jah Gave Us This World.wav" WAVE INDEX 01 00:00:00 TRACK 04 AUDIO TITLE "Natty Dread at the Controls" PERFORMER "The Travellers" REM COMPOSER "" INDEX 00 02:33:08FILE "04. Natty Dread at the Controls.wav" WAVE INDEX 01 00:00:00 TRACK 05 AUDIO TITLE "False Leaders" PERFORMER "The Travellers" REM COMPOSER "" INDEX 00 03:14:54FILE "05. False Leaders.wav" WAVE INDEX 01 00:00:00 TRACK 06 AUDIO TITLE "Peace and Rest" PERFORMER "The Travellers" REM COMPOSER "" INDEX 00 03:26:22FILE "06. Peace and Rest.wav" WAVE INDEX 01 00:00:00 TRACK 07 AUDIO TITLE "Peace and Rest Version" PERFORMER "The Travellers" REM COMPOSER "" INDEX 00 02:50:67FILE "07. Peace and Rest Version.wav" WAVE INDEX 01 00:00:00 TRACK 08 AUDIO TITLE "The Girl I Left Behind" PERFORMER "The Travellers" REM COMPOSER "" INDEX 00 02:55:69FILE "08. The Girl I Left Behind.wav" WAVE INDEX 01 00:00:00 TRACK 09 AUDIO TITLE "Tell Me Why" PERFORMER "The Travellers" REM COMPOSER "" INDEX 00 03:26:00FILE "09. Tell Me Why.wav" WAVE INDEX 01 00:00:00 TRACK 10 AUDIO TITLE "How Long" PERFORMER "The Travellers" REM COMPOSER "" INDEX 00 03:42:30FILE "10. How Long.wav" WAVE INDEX 01 00:00:00 TRACK 11 AUDIO TITLE "How Long Version" PERFORMER "The Travellers" REM COMPOSER "" INDEX 00 03:37:35FILE "11. How Long Version.wav" WAVE INDEX 01 00:00:00 TRACK 12 AUDIO TITLE "Poor Man Cry" PERFORMER "The Travellers" REM COMPOSER "" INDEX 00 03:36:16FILE "12. Poor Man Cry.wav" WAVE INDEX 01 00:00:00 TRACK 13 AUDIO TITLE "Jammy's A Do It" PERFORMER "The Travellers" REM COMPOSER "" INDEX 00 03:08:66FILE "13. Jammy's A Do It.wav" WAVE INDEX 01 00:00:00 TRACK 14 AUDIO TITLE "Keep On Trying" PERFORMER "The Travellers" REM COMPOSER "" INDEX 00 03:45:45FILE "14. Keep On Trying.wav" WAVE INDEX 01 00:00:00 TRACK 15 AUDIO TITLE "Keep On Trying Version" PERFORMER "The Travellers" REM COMPOSER "" INDEX 00 03:33:18FILE "15. Keep On Trying Version.wav" WAVE INDEX 01 00:00:00 TRACK 16 AUDIO TITLE "We Got to Leave" PERFORMER "The Travellers" REM COMPOSER "" INDEX 00 02:15:19FILE "16. We Got to Leave.wav" WAVE INDEX 01 00:00:00

Об исполнителе (группе)

http://www.discogs.com/artist/442711-The-Travellers-2


[chi5o.com]_t_5671061.torrent
Торрент: Зарегистрирован ·  [ 2019-01-12 22:07 ] ·  a7f3e0d6edaf661425141517cca811b98149b9a7

14 KB

Статус: проверено
Скачан: 0 раз
Размер: 319 MB
Оценка: 
(Голосов: 0)
Сказали спасибо: 0  Спасибо
Похожие темы
[Профиль]    [ЛС]
Показать сообщения:    
Ответить на тему

Текущее время: Сегодня 18:32

Часовой пояс: GMT + 7



Вы не можете начинать темы
Вы не можете отвечать на сообщения
Вы не можете редактировать свои сообщения
Вы не можете удалять свои сообщения
Вы не можете голосовать в опросах
Вы не можете прикреплять файлы к сообщениям
Вы можете скачивать файлы


M_아자르c컵녀.mp4 | Bereit für die Großaufnahme Alan Harper, Frontier Chiropractor | TV Movie