(New Age) [CD] Jim Brickman - Visions of Love - 1998, FLAC (tracks+.cue), lossless

Ответить на тему
Статистика раздачи [Обновить пиров]
Размер:  299 MB   |    Зарегистрирован:  7 дней   |    Скачан:  0 раз

Полного источника не было: Никогда

 
   
 
 
 
Автор Сообщение

chi5o.com

Создавать темы 12-Янв-2019 22:08

[Цитировать]

Jim Brickman / Visions of Love
Жанр: New Age
Носитель: CD
Страна-производитель диска (релиза): Canada
Год издания: 1998
Издатель (лейбл): Windham Hill
Номер по каталогу: 01934-11401-2
Аудиокодек: FLAC (*.flac)
Тип рипа: tracks+.cue
Битрейт аудио: lossless
Продолжительность: 0:44:27.
Источник (релизер): clustert
Наличие сканов в содержимом раздачи: да
Треклист:
01. That's What I'm Here For (with David Crow) [0:04:10.18]
02. After All These Years (with Anne Cochran) [0:04:11.22]
03. One Heart One Love (with Phil Perry) [0:04:19.02]
04. Still in Love (with Larry Stewart) [0:03:56.69]
05. Partners in Crime (with Dave Koz) [0:03:04.49]
06. Like Love (with Phillip Ingram and Marilyn Harris) [0:04:04.01]
07. Getting Over You (with Janis Ian) [0:04:21.17]
08. Shower the People (with Amanda Upchurch) [0:04:05.10]
09. The Gift (with Colin Raye and Susan Ashton) [0:03:42.53]
10. My Heart Belongs to You (with Peabo Bryson) [0:04:30.40]
11. We Live for Love (with Stephen Bishop) [0:04:01.72]

Лог создания рипа

Exact Audio Copy V1.0 beta 3 from 29. August 2011
Отчёт EAC об извлечении, выполненном 4. января 2019, 18:29
Jim Brickman / Visions of Love
Дисковод: ASUS DRW-1814BLT Adapter: 5 ID: 0
Режим чтения : ДостоверностьИспользование точного потока : ДаОтключение кэша аудио : ДаИспользование указателей C2 : Нет
Коррекция смещения при чтении : 6Способность читать области Lead-in и Lead-out : НетЗаполнение пропущенных сэмплов тишиной : ДаУдаление блоков с тишиной в начале и конце : НетПри вычислениях CRC использовались нулевые сэмплы : ДаИнтерфейс : Встроенный Win32-интерфейс для Win NT/2000Обработка зазоров : Добавлено к предыдущему треку
Выходной формат : Пользовательский кодировщикВыбранный битрейт : 128 kBit/sКачество : ВысокийДобавление ID3-тега : НетУтилита сжатия : C:\Program Files\Exact Audio Copy\Flac\flac.exeДополнительные параметры : -V -8 -T "Genre=%genre%" -T "Artist=%artist%" -T "Title=%title%" -T "Album=%albumtitle%" -T "Date=%year%" -T "Tracknumber=%tracknr%" -T "Comment=EAC1.0b2 FLAC -8" %source%
TOC извлечённого CD
Трек | Старт | Длительность | Начальный сектор | Конечный сектор --------------------------------------------------------------------- 1 | 0:00.00 | 4:10.18 | 0 | 18767 2 | 4:10.18 | 4:11.22 | 18768 | 37614 3 | 8:21.40 | 4:19.02 | 37615 | 57041 4 | 12:40.42 | 3:56.69 | 57042 | 74810 5 | 16:37.36 | 3:04.49 | 74811 | 88659 6 | 19:42.10 | 4:04.01 | 88660 | 106960 7 | 23:46.11 | 4:21.17 | 106961 | 126552 8 | 28:07.28 | 4:05.10 | 126553 | 144937 9 | 32:12.38 | 3:42.53 | 144938 | 161640 10 | 35:55.16 | 4:30.40 | 161641 | 181930 11 | 40:25.56 | 4:01.72 | 181931 | 200077
Трек 1
Имя файла R:\Раздача 81\Jim Brickman - 1998 - Vision Of Love\01 That's What I'm Here For (with David Crow) .wav
Длина предзазора 0:00:02.00
Пиковый уровень 100.0 % Скорость извлечения 5.1 X Качество трека 100.0 % CRC теста 84638E73 CRC копии 84638E73 Точное извлечение (достоверность 3) [88ED9B91] (AR v2) Копирование... OK
Трек 2
Имя файла R:\Раздача 81\Jim Brickman - 1998 - Vision Of Love\02 After All These Years (with Anne Cochran) .wav
Длина предзазора 0:00:01.60
Пиковый уровень 97.7 % Скорость извлечения 4.2 X Качество трека 99.9 % CRC теста B9DE6FFB CRC копии B9DE6FFB Точное извлечение (достоверность 3) [F2814C96] (AR v2) Копирование... OK
Трек 3
Имя файла R:\Раздача 81\Jim Brickman - 1998 - Vision Of Love\03 One Heart One Love (with Phil Perry) .wav
Длина предзазора 0:00:02.28
Пиковый уровень 97.7 % Скорость извлечения 6.2 X Качество трека 100.0 % CRC теста 9D724C32 CRC копии 9D724C32 Точное извлечение (достоверность 3) [1A1B3473] (AR v2) Копирование... OK
Трек 4
Имя файла R:\Раздача 81\Jim Brickman - 1998 - Vision Of Love\04 Still in Love (with Larry Stewart) .wav
Длина предзазора 0:00:01.73
Пиковый уровень 97.7 % Скорость извлечения 6.6 X Качество трека 100.0 % CRC теста 527B19C1 CRC копии 527B19C1 Точное извлечение (достоверность 3) [BAFAA549] (AR v2) Копирование... OK
Трек 5
Имя файла R:\Раздача 81\Jim Brickman - 1998 - Vision Of Love\05 Partners in Crime (with Dave Koz) .wav
Длина предзазора 0:00:01.64
Пиковый уровень 89.7 % Скорость извлечения 6.7 X Качество трека 100.0 % CRC теста 5975AB35 CRC копии 5975AB35 Точное извлечение (достоверность 3) [B351AAA4] (AR v2) Копирование... OK
Трек 6
Имя файла R:\Раздача 81\Jim Brickman - 1998 - Vision Of Love\06 Like Love (with Phillip Ingram and Marilyn Harris) .wav
Длина предзазора 0:00:02.42
Пиковый уровень 97.7 % Скорость извлечения 5.5 X Качество трека 99.9 % CRC теста 2B7D0377 CRC копии 2B7D0377 Точное извлечение (достоверность 3) [9365940F] (AR v2) Копирование... OK
Трек 7
Имя файла R:\Раздача 81\Jim Brickman - 1998 - Vision Of Love\07 Getting Over You (with Janis Ian) .wav
Длина предзазора 0:00:00.71
Пиковый уровень 81.6 % Скорость извлечения 6.5 X Качество трека 100.0 % CRC теста EF5FDB05 CRC копии EF5FDB05 Точное извлечение (достоверность 3) [8405B2F8] (AR v2) Копирование... OK
Трек 8
Имя файла R:\Раздача 81\Jim Brickman - 1998 - Vision Of Love\08 Shower the People (with Amanda Upchurch) .wav
Длина предзазора 0:00:02.08
Пиковый уровень 87.1 % Скорость извлечения 8.0 X Качество трека 100.0 % CRC теста 56B7351A CRC копии 56B7351A Точное извлечение (достоверность 3) [2953CE7F] (AR v2) Копирование... OK
Трек 9
Имя файла R:\Раздача 81\Jim Brickman - 1998 - Vision Of Love\09 The Gift (with Colin Raye and Susan Ashton) .wav
Длина предзазора 0:00:01.53
Пиковый уровень 97.7 % Скорость извлечения 8.2 X Качество трека 100.0 % CRC теста DE4761BC CRC копии DE4761BC Точное извлечение (достоверность 3) [C2D4C203] (AR v2) Копирование... OK
Трек 10
Имя файла R:\Раздача 81\Jim Brickman - 1998 - Vision Of Love\10 My Heart Belongs to You (with Peabo Bryson) .wav
Длина предзазора 0:00:02.03
Пиковый уровень 97.7 % Скорость извлечения 8.7 X Качество трека 100.0 % CRC теста DF8AFC9E CRC копии DF8AFC9E Точное извлечение (достоверность 3) [521346F3] (AR v2) Копирование... OK
Трек 11
Имя файла R:\Раздача 81\Jim Brickman - 1998 - Vision Of Love\11 We Live for Love (with Stephen Bishop) .wav
Длина предзазора 0:00:02.35
Пиковый уровень 97.7 % Скорость извлечения 8.8 X Качество трека 100.0 % CRC теста 23549EA9 CRC копии 23549EA9 Точное извлечение (достоверность 3) [4C542097] (AR v2) Копирование... OK
Все треки извлечены точно
Ошибок не произошло
Конец отчёта
==== Контрольная сумма отчёта 20DAAEBC678D3C0F1AEA044B9BA89795E13CE14650C86B0C750D38460EEE540E ====

Содержание индексной карты (.CUE)

REM GENRE "New Age"REM DATE 1998REM DISCID A10A6B0BREM COMMENT "ExactAudioCopy v1.0b3"CATALOG 0000000000000PERFORMER "Jim Brickman"TITLE "Visions of Love"FILE "01 That's What I'm Here For (with David Crow) .wav" WAVE TRACK 01 AUDIO TITLE "That's What I'm Here For (with David Crow)" PERFORMER "Jim Brickman" ISRC H2OH19800615 INDEX 01 00:00:00 TRACK 02 AUDIO TITLE "After All These Years (with Anne Cochran)" PERFORMER "Jim Brickman" ISRC H2OH19800616 INDEX 00 04:08:33FILE "02 After All These Years (with Anne Cochran) .wav" WAVE INDEX 01 00:00:00 TRACK 03 AUDIO TITLE "One Heart One Love (with Phil Perry)" PERFORMER "Jim Brickman" ISRC H2HM19800332 INDEX 00 04:08:69FILE "03 One Heart One Love (with Phil Perry) .wav" WAVE INDEX 01 00:00:00 TRACK 04 AUDIO TITLE "Still in Love (with Larry Stewart)" PERFORMER "Jim Brickman" ISRC H2OH19800618 INDEX 00 04:17:04FILE "04 Still in Love (with Larry Stewart) .wav" WAVE INDEX 01 00:00:00 TRACK 05 AUDIO TITLE "Partners in Crime (with Dave Koz)" PERFORMER "Jim Brickman" ISRC H2OH19800619 INDEX 00 03:55:05FILE "05 Partners in Crime (with Dave Koz) .wav" WAVE INDEX 01 00:00:00 TRACK 06 AUDIO TITLE "Like Love (with Phillip Ingram and Marilyn Harris)" PERFORMER "Jim Brickman" ISRC H2OH19800621 INDEX 00 03:02:07FILE "06 Like Love (with Phillip Ingram and Marilyn Harris) .wav" WAVE INDEX 01 00:00:00 TRACK 07 AUDIO TITLE "Getting Over You (with Janis Ian)" PERFORMER "Jim Brickman" ISRC H2OH19800622 INDEX 00 04:03:05FILE "07 Getting Over You (with Janis Ian) .wav" WAVE INDEX 01 00:00:00 TRACK 08 AUDIO TITLE "Shower the People (with Amanda Upchurch)" PERFORMER "Jim Brickman" ISRC H2OH19800623 INDEX 00 04:19:09FILE "08 Shower the People (with Amanda Upchurch) .wav" WAVE INDEX 01 00:00:00 TRACK 09 AUDIO TITLE "The Gift (with Colin Raye and Susan Ashton)" PERFORMER "Jim Brickman" ISRC H2OH19800624 INDEX 00 04:03:32FILE "09 The Gift (with Colin Raye and Susan Ashton) .wav" WAVE INDEX 01 00:00:00 TRACK 10 AUDIO TITLE "My Heart Belongs to You (with Peabo Bryson)" PERFORMER "Jim Brickman" ISRC H2OH19800625 INDEX 00 03:40:50FILE "10 My Heart Belongs to You (with Peabo Bryson) .wav" WAVE INDEX 01 00:00:00 TRACK 11 AUDIO TITLE "We Live for Love (with Stephen Bishop)" PERFORMER "Jim Brickman" ISRC H2OH19800626 INDEX 00 04:28:05FILE "11 We Live for Love (with Stephen Bishop) .wav" WAVE INDEX 01 00:00:00


[chi5o.com]_t_5671442.torrent
Торрент: Зарегистрирован ·  [ 2019-01-12 22:07 ] ·  479123179e88796748cbc7912b63ae83348b30da

14 KB

Статус: проверено
Скачан: 0 раз
Размер: 299 MB
Оценка: 
(Голосов: 0)
Сказали спасибо: 0  Спасибо
[Профиль]    [ЛС]
Показать сообщения:    
Ответить на тему

Текущее время: Сегодня 01:57

Часовой пояс: GMT + 7



Вы не можете начинать темы
Вы не можете отвечать на сообщения
Вы не можете редактировать свои сообщения
Вы не можете удалять свои сообщения
Вы не можете голосовать в опросах
Вы не можете прикреплять файлы к сообщениям
Вы можете скачивать файлы


Скачать | Film Vitre Verre Trempe Protection Pour Samsung Galaxy A3 A5 A8 J3 J5 S7 S8 S9 | Tapping the Billionaire (Bad Boy Bill