Смолфут / Smallfoot (Кэри Киркпатрик / Karey Kirkpatrick, Джейсон Рейсиг / Jason Reisig) [2018, США, мультфильм, мюзикл, фэнтези, комедия, приключения,, BDRip 1080p] Dub + Sub (Rus, Ukr, Eng) + Original Eng

Ответить на тему
Статистика раздачи [Обновить пиров]
Размер:  9.39 GB   |    Зарегистрирован:  3 дня   |    Скачан:  0 раз

Полного источника не было: Никогда

 
   
 
 
 
Автор Сообщение

chi5o.com

Создавать темы 12-Янв-2019 21:05

[Цитировать]

Смолфут / Smallfoot
Страна: США
Жанр: мультфильм, мюзикл, фэнтези, комедия, приключения,
Год выхода: 2018
Продолжительность: 01:36:17-Перевод: Профессиональный (дублированный)
Субтитры: Russian (Forced + Full), Ukrainian (Forced), English (Full + SDH + SDH-Colored)
Оригинальная аудиодорожка: английский-Режиссер: Кэри Киркпатрик / Karey Kirkpatrick, Джейсон Рейсиг / Jason Reisig-В ролях: Ченнинг Татум, Джеймс Корден, Зендея, Коммон, Леброн Джеймс, Дэнни ДеВито, Джина Родригез-Описание: Молодой находчивый йети сталкивается с тем, кого, по его глубокому убеждению, не существует — человеком. Новости о «смолфуте» приносят ему славу и шанс завоевать девушку его мечты. А ещё — вызывают переполох среди простых йети, которые теперь гадают, кто же ещё обитает в большом мире за пределами их маленькой заснеженной деревушки.- -Качество видео: BDRip 1080p
Формат файла: MKV
Видео: 1920x800 (2.40:1), 23.976 fps, AVC, ~11.6 Mbps, 0.315 bits/pixel
Аудио 1: Russian, 48.0 KHz, AC3, 6 ch, 640 Kbps - Dub Blu-ray CEE
Аудио 2: Ukrainian, 48.0 KHz, AC3, 2 ch, 192 Kbps - iTunes
Аудио 3: English, 48.0 KHz, DTS, 6 ch, 1510 Kbps - Original-

Сэмпл-

MediaInfo

Формат файла                                   : Matroska
Версия формата                           : Version 4
Размер файла                             : 9,39 Гбайт
Продолжительность                        : 1 ч. 36 м.
Общий поток                              : 14,0 Мбит/сек
Название фильма                          : Smallfoot (2018)
Дата кодирования                         : UTC 2019-01-11 03:30:27
Программа кодирования                    : mkvmerge v5.9.0 ('On The Loose') built on Dec 15 2012 16:39:58
Библиотека кодирования                   : libebml v1.3.0 + libmatroska v1.4.0
Видео
Идентификатор                            : 1
Формат файла                                   : AVC
Формат файла/Информация                        : Advanced Video Codec
Профиль формата                          : High@L4.1
Настройки формата                        : CABAC / 5 Ref Frames
Параметр CABAC формата                   : Да
Параметр RefFrames формата               : 5 кадров
Идентификатор кодека                     : V_MPEG4/ISO/AVC
Продолжительность                        : 1 ч. 36 м.
Битрейт                                  : 11,6 Мбит/сек
Ширина                                   : 1920 пикселей
Высота                                   : 800 пикселей
Соотношение сторон                       : 2,40:1
Режим частоты кадров                     : Постоянный
Частота кадров                           : 23,976 (24000/1001) кадра/сек
Цветовое пространство                    : YUV
Субдискретизация насыщенности            : 4:2:0
Битовая глубина                          : 8 бит
Тип развёртки                            : Прогрессивная
Бит/(Пиксели*Кадры)                      : 0.315
Размер потока                            : 7,62 Гбайт (81%)
Заголовок                                :
Библиотека кодирования                   : x264 core 157 r2935M 545de2f
Настройки программы                      : cabac=1 / ref=5 / deblock=1:-1:-1 / analyse=0x3:0x113 / me=umh / subme=11 / psy=1 / psy_rd=0.96:0.00 / mixed_ref=1 / me_range=32 / chroma_me=1 / trellis=2 / 8x8dct=1 / cqm=0 / deadzone=21,11 / fast_pskip=0 / chroma_qp_offset=-2 / threads=9 / lookahead_threads=2 / sliced_threads=0 / nr=0 / decimate=0 / interlaced=0 / bluray_compat=0 / constrained_intra=0 / bframes=12 / b_pyramid=2 / b_adapt=2 / b_bias=0 / direct=3 / weightb=1 / open_gop=0 / weightp=2 / keyint=240 / keyint_min=23 / scenecut=40 / intra_refresh=0 / rc_lookahead=100 / rc=2pass / mbtree=0 / bitrate=11610 / ratetol=1.0 / qcomp=0.70 / qpmin=0 / qpmax=69 / qpstep=4 / cplxblur=20.0 / qblur=0.5 / vbv_maxrate=50000 / vbv_bufsize=50000 / nal_hrd=none / filler=0 / ip_ratio=1.40 / pb_ratio=1.30 / aq=1:0.70
Язык                                     : English
Default                                  : Да
Forced                                   : Нет
Аудио #1
Идентификатор                            : 2
Формат файла                                   : AC-3
Формат файла/Информация                        : Audio Coding 3
Коммерческое название                    : Dolby Digital
Идентификатор кодека                     : A_AC3
Продолжительность                        : 1 ч. 36 м.
Вид битрейта                             : Постоянный
Битрейт                                  : 640 Кбит/сек
Каналы                                   : 6 каналов
Channel layout                           : L R C LFE Ls Rs
Частота                                  : 48,0 КГц
Частота кадров                           : 31,250 кадров/сек (1536 SPF)
Битовая глубина                          : 16 бит
Метод сжатия                             : С потерями
Размер потока                            : 441 Мбайт (5%)
Заголовок                                : Dub | DD 5.1 @ 640 kbps - Blu-ray CEE
Язык                                     : Russian
ServiceKind/String                       : Complete Main
Default                                  : Да
Forced                                   : Нет
Аудио #2
Идентификатор                            : 3
Формат файла                                   : AC-3
Формат файла/Информация                        : Audio Coding 3
Коммерческое название                    : Dolby Digital
Идентификатор кодека                     : A_AC3
Продолжительность                        : 1 ч. 36 м.
Вид битрейта                             : Постоянный
Битрейт                                  : 192 Кбит/сек
Каналы                                   : 2 канала
Channel layout                           : L R
Частота                                  : 48,0 КГц
Частота кадров                           : 31,250 кадров/сек (1536 SPF)
Битовая глубина                          : 16 бит
Метод сжатия                             : С потерями
Размер потока                            : 132 Мбайт (1%)
Заголовок                                : Dub | DD 2.0 @ 192 kbps - iTunes
Язык                                     : Ukrainian
ServiceKind/String                       : Complete Main
Default                                  : Нет
Forced                                   : Нет
Аудио #3
Идентификатор                            : 4
Формат файла                                   : DTS
Формат файла/Информация                        : Digital Theater Systems
Идентификатор кодека                     : A_DTS
Продолжительность                        : 1 ч. 36 м.
Вид битрейта                             : Постоянный
Битрейт                                  : 1509 Кбит/сек
Каналы                                   : 6 каналов
Channel layout                           : C L R Ls Rs LFE
Частота                                  : 48,0 КГц
Частота кадров                           : 93,750 кадра/сек (512 SPF)
Битовая глубина                          : 24 бит
Метод сжатия                             : С потерями
Размер потока                            : 1,01 Гбайт (11%)
Заголовок                                : Original | DTS 5.1 @ 1509 kbps
Язык                                     : English
Default                                  : Нет
Forced                                   : Нет
Текст #1
Идентификатор                            : 5
Формат файла                                   : UTF-8
Идентификатор кодека                     : S_TEXT/UTF8
Идентификатор кодека/Информация          : UTF-8 Plain Text
Заголовок                                : Forced
Язык                                     : Russian
Default                                  : Да
Forced                                   : Да
Текст #2
Идентификатор                            : 6
Формат файла                                   : UTF-8
Идентификатор кодека                     : S_TEXT/UTF8
Идентификатор кодека/Информация          : UTF-8 Plain Text
Заголовок                                : iTunes
Язык                                     : Russian
Default                                  : Нет
Forced                                   : Нет
Текст #3
Идентификатор                            : 7
Формат файла                                   : UTF-8
Идентификатор кодека                     : S_TEXT/UTF8
Идентификатор кодека/Информация          : UTF-8 Plain Text
Заголовок                                : Forced
Язык                                     : Ukrainian
Default                                  : Нет
Forced                                   : Нет
Текст #4
Идентификатор                            : 8
Формат файла                                   : UTF-8
Идентификатор кодека                     : S_TEXT/UTF8
Идентификатор кодека/Информация          : UTF-8 Plain Text
Заголовок                                : Full
Язык                                     : English
Default                                  : Нет
Forced                                   : Нет
Текст #5
Идентификатор                            : 9
Формат файла                                   : UTF-8
Идентификатор кодека                     : S_TEXT/UTF8
Идентификатор кодека/Информация          : UTF-8 Plain Text
Заголовок                                : SDH
Язык                                     : English
Default                                  : Нет
Forced                                   : Нет
Текст #6
Идентификатор                            : 10
Формат файла                                   : UTF-8
Идентификатор кодека                     : S_TEXT/UTF8
Идентификатор кодека/Информация          : UTF-8 Plain Text
Заголовок                                : SDH-Colored
Язык                                     : English
Default                                  : Нет
Forced                                   : Нет
Меню
00:00:00.000                             : en:Chapter 01
00:05:00.000                             : en:Chapter 02
00:10:00.000                             : en:Chapter 03
00:15:00.000                             : en:Chapter 04
00:20:00.000                             : en:Chapter 05
00:25:00.000                             : en:Chapter 06
00:30:00.000                             : en:Chapter 07
00:35:00.000                             : en:Chapter 08
00:40:00.000                             : en:Chapter 09
00:45:00.000                             : en:Chapter 10
00:50:00.000                             : en:Chapter 11
00:55:00.000                             : en:Chapter 12
01:00:00.000                             : en:Chapter 13
01:05:00.000                             : en:Chapter 14
01:10:00.000                             : en:Chapter 15
01:15:00.000                             : en:Chapter 16
01:20:00.000                             : en:Chapter 17
01:25:00.000                             : en:Chapter 18
01:30:00.000                             : en:Chapter 19
01:35:00.000                             : en:Chapter 20

Скриншоты




[chi5o.com]_t_5672896.torrent
Торрент: Зарегистрирован ·  [ 2019-01-12 21:05 ] ·  252f00cda9d8f4eeef105cf460230c934ffe5e6f

47 KB

Статус: проверено
Скачан: 0 раз
Размер: 9.39 GB
Оценка: 
(Голосов: 0)
Сказали спасибо: 0  Спасибо
Похожие темы
[Профиль]    [ЛС]
Показать сообщения:    
Ответить на тему

Текущее время: Сегодня 18:08

Часовой пояс: GMT + 7



Вы не можете начинать темы
Вы не можете отвечать на сообщения
Вы не можете редактировать свои сообщения
Вы не можете удалять свои сообщения
Вы не можете голосовать в опросах
Вы не можете прикреплять файлы к сообщениям
Вы можете скачивать файлы


Dragon Ball – Bảy Viên Ngọc Rồng chap 264 | accessories | Aktionspreis Schachenmayr Bravo uni Wolle 50 g stricken Handarbeit Farbauswahl