Дневник безумной домохозяйки / Diary of a Mad Housewife (Фрэнк Перри / Frank Perry) [1970, США, драма, комедия, HDTVRip] MVO (Paramount)

Ответить на тему
Статистика раздачи [Обновить пиров]
Размер:  1.37 GB   |    Зарегистрирован:  9 дней   |    Скачан:  0 раз

Полного источника не было: Никогда

 
   
 
 
 
Автор Сообщение

chi5o.com

Создавать темы 12-Янв-2019 02:04

[Цитировать]

Дневник безумной домохозяйки / Diary of a Mad Housewife
Страна: США
Жанр: драма, комедия
Год выхода: 1970
Продолжительность: 01:31:15
Перевод: Профессиональный (многоголосый закадровый) Paramount
Субтитры: нет
Оригинальная аудиодорожка: нет
Режиссер: Фрэнк Перри / Frank Perry
В ролях: Ричард Бенджамин
Фрэнк Ланджелла
Кэрри Снодгресс
Лоррэйн Каллен
Frannie Michel
Lee Addoms
Питер Доханос
Кэтерин Мескилл
Леонард Эллиотт
Вальма
Описание: Сатирический фильм о современном браке и распадающейся семье. Главная героиня - скучающая жена-домохозяйка Тина (Кэрри Снодгресс), у которой завязывается роман с самонадеянным писателем Джорджем (Фрэнк Ланджелла). Мужа, полностью поглощенного своими делами, мастерски играет Ричард Бенджамин.
Сэмпл: http://multi-up.com/1220045
Качество видео: HDTVRip
Формат файла: AVI
Видео: MPEG4, XviD, 720x384 (1.875), 25.000 fps, 1 946 Kbps (0.282 bit/pixel)
Аудио: AC-3, 48.0 KHz, 2 ch, 192 Kbps, CBR

MediaInfo

ОбщееПолное имя : F:\Дневник безумной домохозяйки.aviФормат файла : AVIФормат файла/Информация : Audio Video InterleaveРазмер файла : 1,37 ГбайтПродолжительность : 1 ч. 31 м.Общий поток : 2148 Кбит/секНазвание фильма : Дневник безумной домохозяйки / Diary of a Mad Housewife (1970)Программа кодирования : VirtualDubMod 1.5.10.2 (build 2540/release)Библиотека кодирования : VirtualDubMod build 2540/releaseАвторское право : miha2154
ВидеоИдентификатор : 0Формат файла : MPEG-4 VisualПрофиль формата : Advanced Simple@L5Настройки формата : BVOP1 / Custom MatrixПараметр BVOP формата : 1Параметр QPel формата : НетПараметр GMC формата : Без точки переходаПараметр матрицы формата : ВыборочнаяИдентификатор кодека : XVIDИдентификатор кодека/Подсказка : XviDПродолжительность : 1 ч. 31 м.Битрейт : 1946 Кбит/секШирина : 720 пикселейВысота : 384 пикселяСоотношение сторон : 1,85:1Частота кадров : 25,000 кадров/секЦветовое пространство : YUVСубдискретизация насыщенности : 4:2:0Битовая глубина : 8 битТип развёртки : ПрогрессивнаяМетод сжатия : С потерямиБит/(Пиксели*Кадры) : 0.282Размер потока : 1,24 Гбайт (91%)Библиотека кодирования : XviD 65
АудиоИдентификатор : 1Формат файла : AC-3Формат файла/Информация : Audio Coding 3Коммерческое название : Dolby DigitalИдентификатор кодека : 2000Продолжительность : 1 ч. 31 м.Вид битрейта : ПостоянныйБитрейт : 192 Кбит/секКаналы : 2 каналаChannel layout : L RЧастота : 48,0 КГцЧастота кадров : 31,250 кадров/сек (1536 SPF)Битовая глубина : 16 битМетод сжатия : С потерямиРазмер потока : 125 Мбайт (9%)Выравнивание : Разделение по промежуткамПродолжительность промежутка : 40 мс. (1,00 видеокадр)Время предзагрузки промежутка : 500 мс.Заголовок : Профессиональный (многоголосый, закадровый)ServiceKind/String : Complete Main

Скриншоты




[chi5o.com]_t_5672957.torrent
Торрент: Зарегистрирован ·  [ 2019-01-12 02:04 ] ·  15d2b9a3376909bf64193f2c5c6e2c7e39e12f7b

14 KB

Статус: проверено
Скачан: 0 раз
Размер: 1.37 GB
Оценка: 
(Голосов: 0)
Сказали спасибо: 0  Спасибо
Похожие темы
[Профиль]    [ЛС]
Показать сообщения:    
Ответить на тему

Текущее время: Сегодня 16:54

Часовой пояс: GMT + 7



Вы не можете начинать темы
Вы не можете отвечать на сообщения
Вы не можете редактировать свои сообщения
Вы не можете удалять свои сообщения
Вы не можете голосовать в опросах
Вы не можете прикреплять файлы к сообщениям
Вы можете скачивать файлы


Anastasia Beverly Hills Norvina Soft Glam Prism Sultry Subculte Eyeshadow Palete | └ Música, CDs y vinilos | Расписание