Частное торжество / A Private Function (Малкольм Маубрэй / Malcolm Mowbray) [1984, Великобритания, комедия, BDRip] MVO (СВ-Дубль) + Original Eng + Sub Rus, Eng

Ответить на тему
Статистика раздачи [Обновить пиров]
Размер:  1.45 GB   |    Зарегистрирован:  6 дней   |    Скачан:  0 раз

Полного источника не было: Никогда

 
   
 
 
 
Автор Сообщение

chi5o.com

Создавать темы 11-Янв-2019 21:55

[Цитировать]

Частное торжество / A Private Function
Страна: Великобритания
Студия: Handmade Films Ltd.
Жанр: комедия
Год выхода: 1984
Продолжительность: 01:36:16
Перевод: Профессиональный (многоголосый закадровый) СВ-Дубль по заказу ВГТРК
Субтитры: Русские, английские - внешние
Оригинальная аудиодорожка: Английский
Режиссер: Малкольм Маубрэй / Malcolm Mowbray
В ролях: Майкл Пэйлин, Мэгги Смит, Денхолм Эллиотт, Ричард Гриффитс, Тони Хейгарт, Джон Нормингтон, Билл Патерсон, Лиз Смит, Элисон Стэдмен, Джим Картер, Пит Постлетуэйт, Эйлин О’Брайэн, Рэйчел Дейвис, Рис Динсдейл, Филип Уайлмэн, Чарльз МакКоуэн, Сьюзан Порретт, Дональд Экклс, Денис Хоторн
Описание: 1947 год. Рядовые англичане в первые годы после войны живут чуть ли не впроголодь. О мясе, а уж тем более о беконе, могут только мечтать. Мясников и фермеров, во избежание расцвета черного рынка, строго контролируют власти. Но, правила на то и существуют, чтобы их обходить. Когда принцесса Елизавета собралась замуж, группа бизнесменов провинциального английского городка решает организовать торжество в честь королевской свадьбы, чтобы своей верноподданностью впечатлить местные власти.
Дополнительная информация:
Автор релиза -
За рип спасибо Koenig, Источник: Torrentc - Blu-Ray (USA) - A.Private.Function.1984.BDRemux.1080p by Kabukiman
Автор русских субтитров - granzo
Перевод записан мной с канала "Россия К" 10.01.2019
Рекламы нет!

Сэмпл: http://multi-up.com/1219996
Качество видео: BDRip
Формат файла: AVI
Видео: XviD, 720x400 (16:9), 1760 kbps, 23.976 fps, 0.255 bit/pixel
Аудио 1: Русский AC3, 48000 Гц, 2ch, 192 kbps
Аудио 2: Английский AC3, 48000 Гц, 2ch, 192 kbps
Формат файла субтитров: softsub (SRT) - внешние

MediaInfo

ОбщееПолное имя : D:\A.Private.Function.1984.BDRip-ylnian\A.Private.Function.1984.BDRip-ylnian.aviФормат файла : AVIФормат файла/Информация : Audio Video InterleaveРазмер файла : 1,45 ГбайтПродолжительность : 1 ч. 36 м.Общий поток : 2158 Кбит/секПрограмма кодирования : VirtualDubMod 1.5.10.3 | www.virtualdub-fr.org || (build 2550/release)Библиотека кодирования : VirtualDubMod build 2550/release
ВидеоИдентификатор : 0Формат файла : MPEG-4 VisualПрофиль формата : Advanced Simple@L5Настройки формата : BVOP1 / Custom MatrixПараметр BVOP формата : 1Параметр QPel формата : НетПараметр GMC формата : Без точки переходаПараметр матрицы формата : ВыборочнаяИдентификатор кодека : XVIDИдентификатор кодека/Подсказка : XviDПродолжительность : 1 ч. 36 м.Битрейт : 1760 Кбит/секШирина : 720 пикселейВысота : 400 пикселейСоотношение сторон : 16:9Частота кадров : 23,976 (24000/1001) кадра/секЦветовое пространство : YUVСубдискретизация насыщенности : 4:2:0Битовая глубина : 8 битТип развёртки : ПрогрессивнаяМетод сжатия : С потерямиБит/(Пиксели*Кадры) : 0.255Размер потока : 1,18 Гбайт (82%)Библиотека кодирования : XviD 65
Аудио #1Идентификатор : 1Формат файла : AC-3Формат файла/Информация : Audio Coding 3Коммерческое название : Dolby DigitalИдентификатор кодека : 2000Продолжительность : 1 ч. 36 м.Вид битрейта : ПостоянныйБитрейт : 192 Кбит/секКаналы : 2 каналаChannel layout : L RЧастота : 48,0 КГцЧастота кадров : 31,250 кадров/сек (1536 SPF)Битовая глубина : 16 битМетод сжатия : С потерямиРазмер потока : 132 Мбайт (9%)Выравнивание : Разделение по промежуткамПродолжительность промежутка : 42 мс. (1,00 видеокадр)Время предзагрузки промежутка : 500 мс.Заголовок : RUS - MVOServiceKind/String : Complete Main
Аудио #2Идентификатор : 2Формат файла : AC-3Формат файла/Информация : Audio Coding 3Коммерческое название : Dolby DigitalИдентификатор кодека : 2000Продолжительность : 1 ч. 36 м.Вид битрейта : ПостоянныйБитрейт : 192 Кбит/секКаналы : 2 каналаChannel layout : L RЧастота : 48,0 КГцЧастота кадров : 31,250 кадров/сек (1536 SPF)Битовая глубина : 16 битМетод сжатия : С потерямиРазмер потока : 132 Мбайт (9%)Выравнивание : Разделение по промежуткамПродолжительность промежутка : 42 мс. (1,00 видеокадр)Время предзагрузки промежутка : 500 мс.Заголовок : OriginalServiceKind/String : Complete Main
ОбщееПолное имя : D:\A.Private.Function.1984.BDRip-ylnian\A.Private.Function.1984.BDRip-ylnian.rus.srtФормат файла : SubRipРазмер файла : 109 Кбайт
ТекстФормат файла : SubRipМетод сжатия : Без потерь
ОбщееПолное имя : D:\A.Private.Function.1984.BDRip-ylnian\A.Private.Function.1984.BDRip-ylnian_eng.srtФормат файла : SubRipРазмер файла : 84,6 Кбайт
ТекстФормат файла : SubRipМетод сжатия : Без потерь

Награды

3 wins & 3 nominations - http://www.imdb.com/title/tt0089838/awards?ref_=tt_awd


[chi5o.com]_t_5672796.torrent
Торрент: Зарегистрирован ·  [ 2019-01-11 21:55 ] ·  2e04d6e12e901a959db3983a560f0521f804c635

15 KB

Статус: проверено
Скачан: 0 раз
Размер: 1.45 GB
Оценка: 
(Голосов: 0)
Сказали спасибо: 0  Спасибо
Похожие темы
[Профиль]    [ЛС]
Показать сообщения:    
Ответить на тему

Текущее время: Сегодня 12:45

Часовой пояс: GMT + 7



Вы не можете начинать темы
Вы не можете отвечать на сообщения
Вы не можете редактировать свои сообщения
Вы не можете удалять свои сообщения
Вы не можете голосовать в опросах
Вы не можете прикреплять файлы к сообщениям
Вы можете скачивать файлы


1 pot de ludwigia sp white tres rare nouveaute 2018 nano crevette poisson | Price Highest | Generation War streaming