Часы Посещения / Часы для посещения больных / Visiting Hours (Жан-Клод Лорд / Jean-Claude Lord) [1982, Канада, триллер, детектив, драма, DVDRip] AVO (Андрей Гаврилов) + AVO (Юрий Товбин)

Ответить на тему
Статистика раздачи [Обновить пиров]
Размер:  1.47 GB   |    Зарегистрирован:  7 дней   |    Скачан:  0 раз

Полного источника не было: Никогда

 
   
 
 
 
Автор Сообщение

chi5o.com

Создавать темы 10-Янв-2019 23:00

[Цитировать]

Часы Посещения / Часы для посещения больных / Visiting Hours
Страна: Канада
Жанр: триллер, детектив, драма
Год выхода: 1982
Продолжительность: 01:45:03
Перевод: Авторский (одноголосый закадровый) Андрей Гаврилов
Перевод 2: Авторский (одноголосый закадровый) Юрий Товбин
Субтитры: нет
Режиссер: Жан-Клод Лорд / Jean-Claude Lord
В ролях: Майкл Айронсайд, Ли Грант, Линда Перл, Уильям Шетнер, Ленор Занн, Гарри Аткин, Хелен Хьюз, Майкл Рейнольдс, Керстен Бишоп
Описание: Телевизионная ведущая оказывается в центре внимания психически неуравновешенного маньяка. Ее смелые и нетрадиционные высказывания о феминизме, неграх, войне во Вьетнаме, евреях вызывают у него чувство досады и разочарования. Он преследует ее до самого дома, после чего проникает внутрь и нападает на женщину. Той чудом удается избежать смерти, но при этом журналистка получает серьезные повреждения. Она оказывается в госпитале. Но оказывается, что ее кошмары только начинаются, так как маньяк собирается завершить начатое дело и убить журналистку…
Доп. информация: Выражаю огромную благодарность Нордеру за синхронизацию звуковых дорожек.

Сэмпл: http://multi-up.com/1219934
Качество видео: DVDRip (Источник: Torrentc - DVD5)
Формат файла: AVI
Видео: XviD 73, 704x384, (1,85:1), 23,976 fps, 1599 Кбит/с, 8 бит
Аудио: Русский (АС3, 2 ch (Front: L R), 48,0 KHz, 192 Kbps) Андрей Гаврилов
Аудио 2: Русский (АС3, 2 ch (Front: L R), 48,0 KHz, 192 Kbps) Юрий Товбин

MediaInfo

ОбщееПолное имя : H:\Фильмы на трекер\Часы Посещения (треллер, детектив, драма 1982 год).aviФормат файла : AVIФормат файла/Информация : Audio Video InterleaveРазмер файла : 1,47 ГбайтПродолжительность : 1 ч. 45 м.Общий поток : 1997 Кбит/секПрограмма кодирования : VirtualDubMod 1.5.10.2 (build 2540/release)Библиотека кодирования : VirtualDubMod build 2540/release
ВидеоИдентификатор : 0Формат файла : MPEG-4 VisualПрофиль формата : Advanced Simple@L5Параметр BVOP формата : 2Параметр QPel формата : НетПараметр GMC формата : Без точки переходаПараметр матрицы формата : ВыборочнаяИдентификатор кодека : XVIDИдентификатор кодека/Подсказка : XviDПродолжительность : 1 ч. 45 м.Битрейт : 1599 Кбит/секШирина : 704 пикселяВысота : 384 пикселяСоотношение сторон : 1,85:1Частота кадров : 23,976 (24000/1001) кадра/секЦветовое пространство : YUVСубдискретизация насыщенности : 4:2:0Битовая глубина : 8 битТип развёртки : ПрогрессивнаяМетод сжатия : С потерямиБит/(Пиксели*Кадры) : 0.247Размер потока : 1,17 Гбайт (80%)Библиотека кодирования : XviD 73
Аудио #1Идентификатор : 1Формат файла : AC-3Формат файла/Информация : Audio Coding 3Расширение режима : CM (complete main)Параметр Endianness формата : BigИдентификатор кодека : 2000Продолжительность : 1 ч. 45 м.Вид битрейта : ПостоянныйБитрейт : 192 Кбит/секКаналы : 2 каналаРасположение каналов : Front: L RЧастота : 48,0 КГцЧастота кадров : 31,250 кадров/сек (1536 spf)Метод сжатия : С потерямиРазмер потока : 144 Мбайт (10%)Выравнивание : Разделение по промежуткамПродолжительность промежутка : 42 мс. (1,00 видеокадр)Время предзагрузки промежутка : 500 мс.
Аудио #2Идентификатор : 2Формат файла : AC-3Формат файла/Информация : Audio Coding 3Расширение режима : CM (complete main)Параметр Endianness формата : BigИдентификатор кодека : 2000Продолжительность : 1 ч. 45 м.Вид битрейта : ПостоянныйБитрейт : 192 Кбит/секКаналы : 2 каналаРасположение каналов : Front: L RЧастота : 48,0 КГцЧастота кадров : 31,250 кадров/сек (1536 spf)Метод сжатия : С потерямиРазмер потока : 144 Мбайт (10%)Выравнивание : Разделение по промежуткамПродолжительность промежутка : 42 мс. (1,00 видеокадр)Время предзагрузки промежутка : 500 мс.

Скриншот c названием фильма

Скриншоты



[chi5o.com]_t_5672283.torrent
Торрент: Зарегистрирован ·  [ 2019-01-10 23:00 ] ·  f125291b3cc259b8f20cf7eb53594c5586b26d94

15 KB

Статус: проверено
Скачан: 0 раз
Размер: 1.47 GB
Оценка: 
(Голосов: 0)
Сказали спасибо: 0  Спасибо
Похожие темы
[Профиль]    [ЛС]
Показать сообщения:    
Ответить на тему

Текущее время: Сегодня 12:35

Часовой пояс: GMT + 7



Вы не можете начинать темы
Вы не можете отвечать на сообщения
Вы не можете редактировать свои сообщения
Вы не можете удалять свои сообщения
Вы не можете голосовать в опросах
Вы не можете прикреплять файлы к сообщениям
Вы можете скачивать файлы


Next page | Edward G. Robinson | Johnny Englis (2018)