Приключения Авакума Захова. Маленькая ночная серенада. / Приключенията на Авакум Захов. Малка нощна музика. (Йордан Джумалиев / Yordan Dzhumaliev) [1980, Болгария, Детектив, TVRip] VO (Urasiko)

Ответить на тему
Статистика раздачи [Обновить пиров]
Размер:  751 MB   |    Зарегистрирован:  8 дней   |    Скачан:  0 раз

Полного источника не было: Никогда

 
   
 
 
 
Автор Сообщение

chi5o.com

Создавать темы 10-Янв-2019 11:25

[Цитировать]

Приключения Авакума Захова. Маленькая ночная серенада. / Приключенията на Авакум Захов. Малка нощна музика.
Страна: Болгария
Жанр: Детектив
Год выхода: 1980
Продолжительность: 01:17:13
Перевод: Одноголосый закадровый Urasiko
Субтитры: нет
Оригинальная аудиодорожка: Болгарский
Режиссер: Йордан Джумалиев / Yordan Dzhumaliev
В ролях: Иван Налбантов, Дамян Антонов, Мая Зуркова, Петр Дончев, Мая Драгоманска, Климент Денчев.
Описание: Фильм снят по повести Андрея Гуляшки "Маленькая ночная музыка".
Два убийства произошли в один и тот же день, под крышей одного и того же дома и почти в один и тот же час. Инженер Теодосий Дянков был отравлен в своей квартире, а младший сержант ГАИ Кирилл Наумов был застрелен на чердаке. И понятное дело, что без майора Авакума Захова никак не обойтись.
Доп. информация:
Перевод: harpv
Редактирование: Sasha
Озвучивание: Urasiko
Сэмпл: http://multi-up.com/1219876
Качество видео: TVRip
Формат файла: AVI
Видео: XviD build 64, 640x480 (1.33:1), 25.000 fps, ~960 kbps avg, 0.13 bit/pixel
Аудио: Русский, AC3 Dolby Digital, 2/0 (L,R) ch, 48 kHz, 192 kbps
Аудио 2: Болгарский, AC3 Dolby Digital, 2/0 (L,R) ch, 48 kHz, 192 kbps

MediaInfo

ОбщееПолное имя : D:\Muvi\Приключения Авакума Захова (Маленькая ночная серенада) Rus.aviФормат файла : AVIФормат файла/Информация : Audio Video InterleaveРазмер файла : 751 МбайтПродолжительность : 1 ч. 17 м.Общий поток : 1360 Кбит/секПрограмма кодирования : VirtualDubMod 1.5.10.2 (build 2542/release)Библиотека кодирования : VirtualDubMod build 2542/release
ВидеоИдентификатор : 0Формат файла : MPEG-4 VisualПрофиль формата : Advanced Simple@L5Настройки формата : Custom MatrixПараметр BVOP формата : НетПараметр QPel формата : НетПараметр GMC формата : Без точки переходаПараметр матрицы формата : ВыборочнаяИдентификатор кодека : XVIDИдентификатор кодека/Подсказка : XviDПродолжительность : 1 ч. 17 м.Битрейт : 962 Кбит/секШирина : 640 пикселейВысота : 480 пикселейСоотношение сторон : 4:3Частота кадров : 25,000 кадров/секЦветовое пространство : YUVСубдискретизация насыщенности : 4:2:0Битовая глубина : 8 битТип развёртки : ПрогрессивнаяМетод сжатия : С потерямиБит/(Пиксели*Кадры) : 0.125Размер потока : 531 Мбайт (71%)Библиотека кодирования : XviD 64
Аудио #1Идентификатор : 1Формат файла : AC-3Формат файла/Информация : Audio Coding 3Идентификатор кодека : 2000Продолжительность : 1 ч. 17 м.Вид битрейта : ПостоянныйБитрейт : 192 Кбит/секКаналы : 2 каналаРасположение каналов : Front: L RЧастота : 48,0 КГцЧастота кадров : 31,250 кадров/сек (1536 SPF)Битовая глубина : 16 битМетод сжатия : С потерямиРазмер потока : 106 Мбайт (14%)Выравнивание : Разделение по промежуткамПродолжительность промежутка : 40 мс. (1,00 видеокадр)Время предзагрузки промежутка : 500 мс.ServiceKind/String : Complete Main
Аудио #2Идентификатор : 2Формат файла : AC-3Формат файла/Информация : Audio Coding 3Идентификатор кодека : 2000Продолжительность : 1 ч. 17 м.Вид битрейта : ПостоянныйБитрейт : 192 Кбит/секКаналы : 2 каналаРасположение каналов : Front: L RЧастота : 48,0 КГцЧастота кадров : 31,250 кадров/сек (1536 SPF)Битовая глубина : 16 битМетод сжатия : С потерямиРазмер потока : 106 Мбайт (14%)Выравнивание : Разделение по промежуткамПродолжительность промежутка : 40 мс. (1,00 видеокадр)Время предзагрузки промежутка : 500 мс.ServiceKind/String : Complete Main

Скриншот c названием фильма

Скриншоты



[chi5o.com]_t_5672033.torrent
Торрент: Зарегистрирован ·  [ 2019-01-10 11:25 ] ·  0166da1617ccdcb2959c325f48164abc0a81d869

15 KB

Статус: проверено
Скачан: 0 раз
Размер: 751 MB
Оценка: 
(Голосов: 0)
Сказали спасибо: 0  Спасибо
Похожие темы
[Профиль]    [ЛС]
Показать сообщения:    
Ответить на тему

Текущее время: Сегодня 12:43

Часовой пояс: GMT + 7



Вы не можете начинать темы
Вы не можете отвечать на сообщения
Вы не можете редактировать свои сообщения
Вы не можете удалять свои сообщения
Вы не можете голосовать в опросах
Вы не можете прикреплять файлы к сообщениям
Вы можете скачивать файлы


Rugby | Asian Antiques | info@episode.hu