Грозовая фантазия: Меч жизни и смерти / Thunderbolt Fantasy: The Sword of Life and Death [Movie] [Без хардсаба] [JAP+SUB] [2017, приключения, фэнтези, BDRip] [1080p]

Ответить на тему
Статистика раздачи [Обновить пиров]
Размер:  5.49 GB   |    Зарегистрирован:  7 дней   |    Скачан:  0 раз

Полного источника не было: Никогда

 
   
 
 
 
Автор Сообщение

chi5o.com

Создавать темы 09-Янв-2019 10:30

[Цитировать]

-Грозовая фантазия: Меч жизни и смерти / Thunderbolt Fantasy: The Sword of Life and Death- Страна: Япония, Тайвань
Год выхода: 2017
Жанр: приключения, фэнтези
Тип: Movie
Продолжительность: 74 мин.
Автор оригинала: Уробути Гэн
Режиссер: Хуан Цян Хуа-Описание: Убийца Сетсу Му Що, известный как Кричащий Феникс, смертельно ненавидит непревзойдённого вора Таинственного Шторма. Но эти двое не всегда враждовали – на самом деле Феникс когда-то работал на Шторма и даже считал его своим спасителем. Однако, роковые события знаменитого турнира мечников разрушили отношения напарников. И именно об этих событиях и повествует первая половина специального эпизода Грозовой Фантазии! Затем история возвращается к Що Фу Кан, раскрывая, куда ведёт его дорога, после приключений в горах Хребет Демона.
© Lionard-Качество: BDRip
Тип релиза: Без хардсаба
Формат файла: MKV
: Centaurea-Raws
Видео: HEVC, 10 bit, 1920x1036, ~10,3 Мбит/с, 59.940 fps
Аудио: AC-3, 48.0 kHz, 2ch, 256 Kbps. Язык - японский. Озвучка - original (в составе контейнера)
Субтитры: ass, встроенные. Язык субтитров - русский. Перевод и оформление субтитров - Lionard. Редактирование - Aiwidan-Thunderbolt Fantasy: Touri-ken Yuuki (2016): [BDRip 720]|[BDRip 1080]Thunderbolt Fantasy: The Sword of Life and Death (2017): [BDRip 1080]Thunderbolt Fantasy: Touri-ken Yuuki 2 (2018): [WEBRip 1080]Thunderbolt Fantasy OST (2016-2018): [320 kbps]

Подробные тех. данные

ОбщееУникальный идентификатор : 265163694485747038995455993704694583684 (0xC77CAB8105381F569A7E703E3C8E9184)Полное имя : D:\Anime\[Centaurea-Raws] Thunderbolt Fantasy. The Sword of Life and Death [BDRip 1080p]\[Centaurea-Raws] Thunderbolt Fantasy. The Sword of Life and Death [BDRip 1080p].mkvФормат файла : MatroskaВерсия формата : Version 4 / Version 2Размер файла : 5,49 ГбайтПродолжительность : 1 ч. 14 м.Общий поток : 10,5 Мбит/секДата кодирования : UTC 2018-11-12 13:03:04Программа кодирования : mkvmerge v28.2.0 ('The Awakening') 64-bitБиблиотека кодирования : libebml v1.3.6 + libmatroska v1.4.9
ВидеоИдентификатор : 1Формат файла : HEVCФормат файла/Информация : High Efficiency Video CodingПрофиль формата : Main 10@L4.1@HighИдентификатор кодека : V_MPEGH/ISO/HEVCПродолжительность : 1 ч. 14 м.Битрейт : 10,3 Мбит/секШирина : 1920 пикселейВысота : 1036 пикселейСоотношение сторон : 1,85:1Режим частоты кадров : ПостоянныйЧастота кадров : 59,940 (60000/1001) кадров/секЦветовое пространство : YUVСубдискретизация насыщенности : 4:2:0Битовая глубина : 10 битБит/(Пиксели*Кадры) : 0.086Размер потока : 5,35 Гбайт (98%)Библиотека кодирования : x265 2.7+1-2aa737a99f51:[Windows][GCC 7.3.0][64 bit] 10bitНастройки программы : cpuid=1050111 / frame-threads=3 / numa-pools=8 / wpp / no-pmode / no-pme / no-psnr / no-ssim / log-level=2 / input-csp=1 / input-res=1920x1036 / interlace=0 / total-frames=268260 / level-idc=0 / high-tier=1 / uhd-bd=0 / ref=5 / no-allow-non-conformance / no-repeat-headers / annexb / no-aud / no-hrd / info / hash=0 / no-temporal-layers / no-open-gop / min-keyint=1 / keyint=400 / gop-lookahead=0 / bframes=8 / b-adapt=2 / b-pyramid / bframe-bias=0 / rc-lookahead=120 / lookahead-slices=4 / scenecut=40 / radl=0 / no-intra-refresh / ctu=32 / min-cu-size=8 / no-rect / no-amp / max-tu-size=16 / tu-inter-depth=2 / tu-intra-depth=2 / limit-tu=4 / rdoq-level=2 / dynamic-rd=0.00 / no-ssim-rd / signhide / no-tskip / nr-intra=0 / nr-inter=0 / no-constrained-intra / no-strong-intra-smoothing / max-merge=4 / limit-refs=2 / limit-modes / me=3 / subme=5 / merange=44 / temporal-mvp / weightp / weightb / no-analyze-src-pics / deblock=-1:-1 / no-sao / no-sao-non-deblock / rd=4 / no-early-skip / rskip / no-fast-intra / no-tskip-fast / no-cu-lossless / b-intra / no-splitrd-skip / rdpenalty=0 / psy-rd=1.80 / psy-rdoq=4.00 / no-rd-refine / no-lossless / cbqpoffs=-2 / crqpoffs=-2 / rc=crf / crf=18.0 / qcomp=0.68 / qpstep=4 / stats-write=0 / stats-read=0 / vbv-maxrate=40000 / vbv-bufsize=50000 / vbv-init=0.9 / crf-max=0.0 / crf-min=0.0 / ipratio=1.40 / pbratio=1.20 / aq-mode=1 / aq-strength=0.90 / cutree / zone-count=0 / no-strict-cbr / qg-size=32 / no-rc-grain / qpmax=69 / qpmin=0 / no-const-vbv / sar=0 / overscan=0 / videoformat=5 / range=0 / colorprim=1 / transfer=1 / colormatrix=1 / chromaloc=0 / display-window=0 / max-cll=0,0 / min-luma=0 / max-luma=1023 / log2-max-poc-lsb=8 / vui-timing-info / vui-hrd-info / slices=1 / no-opt-qp-pps / no-opt-ref-list-length-pps / no-multi-pass-opt-rps / scenecut-bias=0.05 / no-opt-cu-delta-qp / no-aq-motion / no-hdr / no-hdr-opt / no-dhdr10-opt / analysis-reuse-level=5 / scale-factor=0 / refine-intra=0 / refine-inter=0 / refine-mv=0 / no-limit-sao / ctu-info=0 / no-lowpass-dct / refine-mv-type=0 / copy-pic=1Default : ДаForced : НетЦветовой диапазон : LimitedОсновные цвета : BT.709Характеристики трансфера : BT.709Коэффициенты матрицы : BT.709
АудиоИдентификатор : 2Формат файла : AC-3Формат файла/Информация : Audio Coding 3Идентификатор кодека : A_AC3Продолжительность : 1 ч. 14 м.Вид битрейта : ПостоянныйБитрейт : 256 Кбит/секКаналы : 2 каналаРасположение каналов : Front: L RЧастота : 48,0 КГцЧастота кадров : 31,250 кадров/сек (1536 SPF)Битовая глубина : 16 битМетод сжатия : С потерямиРазмер потока : 137 Мбайт (2%)ServiceKind/String : Complete MainDefault : ДаForced : Нет
ТекстИдентификатор : 3Формат файла : ASSИдентификатор кодека : S_TEXT/ASSИдентификатор кодека/Информация : Advanced Sub Station AlphaПродолжительность : 1 ч. 8 м.Битрейт : 159 бит/секElementCount : 895Метод сжатия : Без потерьРазмер потока : 80,8 Кбайт (0%)Заголовок : [Lionard]Язык : RussianDefault : ДаForced : Нет

Скриншоты


ВАЖНО! Имена и названия (примечание от переводчика)



[chi5o.com]_t_5643619.torrent
Торрент: Зарегистрирован ·  [ 2019-01-09 10:27 ] ·  24c99edaeabf20a1412b757a18c85229181f1796

14 KB

Статус: проверено
Скачан: 0 раз
Размер: 5.49 GB
Оценка: 
(Голосов: 0)
Сказали спасибо: 0  Спасибо
Похожие темы
[Профиль]    [ЛС]
Показать сообщения:    
Ответить на тему

Текущее время: Сегодня 17:39

Часовой пояс: GMT + 7



Вы не можете начинать темы
Вы не можете отвечать на сообщения
Вы не можете редактировать свои сообщения
Вы не можете удалять свои сообщения
Вы не можете голосовать в опросах
Вы не можете прикреплять файлы к сообщениям
Вы можете скачивать файлы


Arts amp; Gastronomie – décembre 2018 | 862D+ 2in1 SMD Soldering Iron Hot Air Rework Station Desoldering Repair 110V | Chinois ATV QUAD Pouce Gaz JCL BAJA REDCAT AIMEX XTREME QLINK 50 70 90 125