(Alternative) [CD] Дельфин - Она - 2016, ALAC (tracks+.cue), lossless

Ответить на тему
Статистика раздачи [Обновить пиров]
Размер:  214 MB   |    Зарегистрирован:  1 месяц 7 дней   |    Скачан:  0 раз

Полного источника не было: Никогда

 
   
 
 
 
Автор Сообщение

chi5o.com

Создавать темы 08-Янв-2019 17:24

[Цитировать]

Дельфин - Она- Жанр: Alternative
Носитель: CD
Страна-производитель диска: Россия
Год издания: 2016
Тип издания: оригинал
Издатель (лейбл): ООО "Мистреия Плюс"
Номер по каталогу: CD-M+418-2
Страна: Россия (г. Москва)
Кодек: ALAC
Битрейт: lossless
Продолжительность: 00:37:08
Вшитые тексты: присутствуют
Программа-риповщик: EAC (диск)
Источник (релизер): Собственный диск
Наличие сканов в содержимом раздачи: да-Треклист:-01. Рябиновые Птицы (04:36)
02. Помни (03:44)
03. Небо (05:03)
04. Чудо (04:30)
05. Крики (03:20)
06. Где Ты (04:54)
07. 9 Мая (03:04)
08. Солнце Моё (04:34)
09. Они (03:24)-

Лог создания рипа

Exact Audio Copy V1.3 from 2. September 2016
Отчёт EAC об извлечении, выполненном 8. января 2019, 3:06
Дельфин / Она
Дисковод: HL-DT-STDVDRAM GP60NB60 Adapter: 1 ID: 0
Режим чтения : ДостоверностьИспользование точного потока : ДаОтключение кэша аудио : ДаИспользование указателей C2 : Нет
Коррекция смещения при чтении : 6Способность читать области Lead-in и Lead-out : НетЗаполнение пропущенных сэмплов тишиной : ДаУдаление блоков с тишиной в начале и конце : НетПри вычислениях CRC использовались нулевые сэмплы : ДаИнтерфейс : Встроенный Win32-интерфейс для Win NT/2000Обработка зазоров : Добавлено к предыдущему треку
Выходной формат : Пользовательский кодировщикВыбранный битрейт : 768 kBit/sКачество : ВысокийДобавление ID3-тега : НетУтилита сжатия : D:\Program Files (x86)\foobar2000\encoders\refalac.exeДополнительные параметры : -s --ignorelength --artist "%artist%" --composer "%composer%" --track "%tracknr%"/"%numtracks%" --disk "%cdnumber%"/"%totalcds%" --title "%title%" --album "%albumtitle%" --date "%year%" --genre "%genre%" %haslyrics%--lyrics "%lyricsfile%"%haslyrics% %hascover%--artwork "%coverfile%"%hascover% -o %dest% %source%
TOC извлечённого CD
Трек | Старт | Длительность | Начальный сектор | Конечный сектор --------------------------------------------------------------------- 1 | 0:00.00 | 4:36.13 | 0 | 20712 2 | 4:36.13 | 3:43.39 | 20713 | 37476 3 | 8:19.52 | 5:02.67 | 37477 | 60193 4 | 13:22.44 | 4:29.50 | 60194 | 80418 5 | 17:52.19 | 3:19.46 | 80419 | 95389 6 | 21:11.65 | 4:54.22 | 95390 | 117461 7 | 26:06.12 | 3:03.58 | 117462 | 131244 8 | 29:09.70 | 4:34.18 | 131245 | 151812 9 | 33:44.13 | 3:23.52 | 151813 | 167089
Трек 1
Имя файла D:\Мои Рипы\(2016) Дельфин - Она (ALAC)\01. Рябиновые Птицы.wav
Длина предзазора 0:00:02.00
Пиковый уровень 100.0 % Скорость извлечения 1.2 X Качество трека 100.0 % CRC теста 5B7A6DFB CRC копии 5B7A6DFB Точное извлечение (достоверность 4) [45AE3447] (AR v2) Копирование... OK
Трек 2
Имя файла D:\Мои Рипы\(2016) Дельфин - Она (ALAC)\02. Помни.wav
Пиковый уровень 100.0 % Скорость извлечения 1.3 X Качество трека 100.0 % CRC теста E01EF95B CRC копии E01EF95B Точное извлечение (достоверность 4) [733DBC4F] (AR v2) Копирование... OK
Трек 3
Имя файла D:\Мои Рипы\(2016) Дельфин - Она (ALAC)\03. Небо.wav
Пиковый уровень 100.0 % Скорость извлечения 1.5 X Качество трека 100.0 % CRC теста 8273BD5C CRC копии 8273BD5C Точное извлечение (достоверность 4) [399E4144] (AR v2) Копирование... OK
Трек 4
Имя файла D:\Мои Рипы\(2016) Дельфин - Она (ALAC)\04. Чудо.wav
Пиковый уровень 100.0 % Скорость извлечения 1.6 X Качество трека 100.0 % CRC теста 0BB1AF65 CRC копии 0BB1AF65 Точное извлечение (достоверность 4) [B0420299] (AR v2) Копирование... OK
Трек 5
Имя файла D:\Мои Рипы\(2016) Дельфин - Она (ALAC)\05. Крики.wav
Пиковый уровень 100.0 % Скорость извлечения 1.6 X Качество трека 100.0 % CRC теста C93B3DFF CRC копии C93B3DFF Точное извлечение (достоверность 4) [4B3F5DB6] (AR v2) Копирование... OK
Трек 6
Имя файла D:\Мои Рипы\(2016) Дельфин - Она (ALAC)\06. Где Ты.wav
Пиковый уровень 100.0 % Скорость извлечения 1.8 X Качество трека 100.0 % CRC теста B573BBD8 CRC копии B573BBD8 Точное извлечение (достоверность 4) [A32671D5] (AR v2) Копирование... OK
Трек 7
Имя файла D:\Мои Рипы\(2016) Дельфин - Она (ALAC)\07. 9 Мая.wav
Пиковый уровень 100.0 % Скорость извлечения 1.8 X Качество трека 100.0 % CRC теста A718DC95 CRC копии A718DC95 Точное извлечение (достоверность 4) [7B4C6EEE] (AR v2) Копирование... OK
Трек 8
Имя файла D:\Мои Рипы\(2016) Дельфин - Она (ALAC)\08. Солнце Моё.wav
Пиковый уровень 100.0 % Скорость извлечения 1.8 X Качество трека 99.9 % CRC теста 32E82C71 CRC копии 32E82C71 Точное извлечение (достоверность 4) [80ABB464] (AR v2) Копирование... OK
Трек 9
Имя файла D:\Мои Рипы\(2016) Дельфин - Она (ALAC)\09. Они.wav
Пиковый уровень 79.0 % Скорость извлечения 2.0 X Качество трека 100.0 % CRC теста 24634F86 CRC копии 24634F86 Точное извлечение (достоверность 4) [88360B86] (AR v2) Копирование... OK
Все треки извлечены точно
Ошибок не произошло
Конец отчёта
---- CUETools DB Plugin V2.1.6
[CTDB TOCID: kfU.rJRrD0zJVyUvqMv60GEPxbo-] foundSubmit result: kfU.rJRrD0zJVyUvqMv60GEPxbo- has been confirmedTrack | CTDB Status 1 | (9/9) Accurately ripped 2 | (9/9) Accurately ripped 3 | (9/9) Accurately ripped 4 | (9/9) Accurately ripped 5 | (9/9) Accurately ripped 6 | (9/9) Accurately ripped 7 | (9/9) Accurately ripped 8 | (9/9) Accurately ripped 9 | (9/9) Accurately ripped
==== Контрольная сумма отчёта B3F4AD76915200C47A33C7FEB1B37261622E664455E4AF92218EF21847B3000C ====

Содержание индексной карты (.CUE)

REM GENRE AlternativeREM DATE 2016REM DISCID 6A08B309REM COMMENT "ExactAudioCopy v1.3"PERFORMER "Дельфин"TITLE "Она"REM COMPOSER "Дельфин"FILE "01. Рябиновые Птицы.wav" WAVE TRACK 01 AUDIO TITLE "Рябиновые Птицы" PERFORMER "Дельфин" REM COMPOSER "Дельфин" INDEX 01 00:00:00FILE "02. Помни.wav" WAVE TRACK 02 AUDIO TITLE "Помни" PERFORMER "Дельфин" REM COMPOSER "Дельфин" INDEX 01 00:00:00FILE "03. Небо.wav" WAVE TRACK 03 AUDIO TITLE "Небо" PERFORMER "Дельфин" REM COMPOSER "Дельфин" INDEX 01 00:00:00FILE "04. Чудо.wav" WAVE TRACK 04 AUDIO TITLE "Чудо" PERFORMER "Дельфин" REM COMPOSER "Дельфин" INDEX 01 00:00:00FILE "05. Крики.wav" WAVE TRACK 05 AUDIO TITLE "Крики" PERFORMER "Дельфин" REM COMPOSER "Дельфин" INDEX 01 00:00:00FILE "06. Где Ты.wav" WAVE TRACK 06 AUDIO TITLE "Где Ты" PERFORMER "Дельфин" REM COMPOSER "Дельфин" INDEX 01 00:00:00FILE "07. 9 Мая.wav" WAVE TRACK 07 AUDIO TITLE "9 Мая" PERFORMER "Дельфин" REM COMPOSER "Дельфин" INDEX 01 00:00:00FILE "08. Солнце Моё.wav" WAVE TRACK 08 AUDIO TITLE "Солнце Моё" PERFORMER "Дельфин" REM COMPOSER "Дельфин" INDEX 01 00:00:00FILE "09. Они.wav" WAVE TRACK 09 AUDIO TITLE "Они" PERFORMER "Дельфин" REM COMPOSER "Дельфин" INDEX 01 00:00:00

Лог проверки качества

-----------------------
DON'T MODIFY THIS FILE
-----------------------
PERFORMER: auCDtect Task Manager, ver. 1.6.0 RC1 build 1.6.0.1Copyright (c) 2008-2010 y-soft. All rights reservedhttp://y-soft.org
ANALYZER: auCDtect: CD records authenticity detector, version 0.8.2Copyright (c) 2004 Oleg Berngardt. All rights reserved.Copyright (c) 2004 Alexander Djourik. All rights reserved.
FILE: 01. Рябиновые Птицы.m4a Size: 27872845 Hash: BCD7C58E5F5516BC88417D0711696B89 Accuracy: -m0 Conclusion: CDDA 100% Signature: A48F2CDA7001A738085002891DE1500A6CB490B4FILE: 02. Помни.m4a Size: 21530896 Hash: 70B53C00205A0C9ECB84DD6A4EB4D1B7 Accuracy: -m0 Conclusion: CDDA 100% Signature: AA94160FD1AE90E968185E1FFC0D39CC78EFC258FILE: 03. Небо.m4a Size: 26112848 Hash: 719E3550C49E28F7EC70A78C7C2FCDFA Accuracy: -m0 Conclusion: CDDA 100% Signature: C509AD5919C08B5DACB618064F9A853BB9631E38FILE: 04. Чудо.m4a Size: 21670306 Hash: 60AA996A4E57E8657780E243093D3AAE Accuracy: -m0 Conclusion: CDDA 100% Signature: 6D9F4C06F72956BF0105F8F1EE6BDECEE678E068FILE: 05. Крики.m4a Size: 18259944 Hash: 170C203B4093E3CB33734FF8FEC07F2B Accuracy: -m0 Conclusion: CDDA 100% Signature: 2D1A1D47077888A2C3F24306DC7158EACC545E59FILE: 06. Где Ты.m4a Size: 27148037 Hash: CA72AE4FF6E45E07DF382DF1CEAEC6E9 Accuracy: -m0 Conclusion: CDDA 100% Signature: D237C2C8F2954B36D7760B128A2CD49D4F715332FILE: 07. 9 Мая.m4a Size: 16639104 Hash: 45615F7C5E9156E28D27C850316914F3 Accuracy: -m0 Conclusion: CDDA 100% Signature: FBAC80ECDA9FD7EBEA4964C095CC715B7DB4782BFILE: 08. Солнце Моё.m4a Size: 27522609 Hash: 9BE15F3BD5C6E78A5217D92F551EE600 Accuracy: -m0 Conclusion: CDDA 100% Signature: D828A5E394F5CD3BB0FCDDDC8A7DC26015244DC2FILE: 09. Они.m4a Size: 16988073 Hash: 3F0B76C50AD70E0AC5A516B243196825 Accuracy: -m0 Conclusion: CDDA 100% Signature: F33D0FA6620CBA00CC396833197EA391559A28E0

Скриншот спектра частот

Скриншоты


Об исполнителе

Дельфи́н (англ. Dolphin, настоящее имя — Андре́й Вячесла́вович Лы́сиков, род. 29 сентября 1971) — российский поэт и музыкант. Бывший участник и автор песен хип-хоп трио «Мальчишник», группы «Дубовый Гаайъ» и проекта «Мишины дельфины». Больше известен благодаря одноименному сольному проекту.

Об альбоме

«Она» – альбом Дельфина 2016 года. Работа над диском велась в течение 2015 и 2016 года. Дата официального релиза пластинки – 20 октября 2016 года. осуществляет компания «Мистерия звука».


[chi5o.com]_t_5671147.torrent
Торрент: Зарегистрирован ·  [ 2019-01-08 17:24 ] ·  f09a2ece443afacbef7f255b8b05b03fdfcbcc33

18 KB

Статус: проверено
Скачан: 0 раз
Размер: 214 MB
Оценка: 
(Голосов: 0)
Сказали спасибо: 0  Спасибо
Похожие темы
[Профиль]    [ЛС]
Показать сообщения:    
Ответить на тему

Текущее время: Сегодня 16:31

Часовой пояс: GMT + 7



Вы не можете начинать темы
Вы не можете отвечать на сообщения
Вы не можете редактировать свои сообщения
Вы не можете удалять свои сообщения
Вы не можете голосовать в опросах
Вы не можете прикреплять файлы к сообщениям
Вы можете скачивать файлы


My Bloody Valentine - To Here Knows When (Official Video) MP3 | Lorraine Gray | Full Version