Чёрный клановец / BlacKkKlansman (Спайк Ли / Spike Lee ) [2018, США, Драма, комедия, криминал, биография, BDRip, HD (720p)] DUB + Original + sub (eng)

Ответить на тему
Статистика раздачи [Обновить пиров]
Размер:  4.55 GB   |    Зарегистрирован:  1 месяц 8 дней   |    Скачан:  0 раз

Полного источника не было: Никогда

 
   
 
 
 
Автор Сообщение

chi5o.com

Создавать темы 08-Янв-2019 13:47

[Цитировать]

Чёрный клановец / BlacKkKlansman
«В сердце ненависти»
6.917 / 10 7.60 / 10
- Год выхода: 2018
Страна: США
Жанр: Драма, комедия, криминал, биография
Продолжительность: 02:14:49
Перевод: Дублированный (iTunes)
Оригинальная аудиодорожка: Есть
Cубтитры: Английские
Режиссёр: Спайк Ли
Сценарий: Чарли Вачтел, Дэвид Рабиновиц, Кевин Уиллмотт
Продюсер: Джейсон Блум, Спайк Ли, Рэймонд Мэнсфилд
Оператор: Чейзи Ирвин
Композитор: Теренс Блэнчард
Художник: Курт Бич, Марси Мадд, Марси Роджерс
Монтаж: Бэрри Александер Браун
В ролях: Джон Дэвид Вашингтон, Адам Драйвер, Лора Хэрриер, Тофер Грейс, Яспер Пяякконен, Райан Эгголд, Роберт Джон Бёрк, Николас Туртурро, Кори Хоукинс, Алек Болдуин
Бюджет: $15 000 000
Сборы в США: $48 271 960
Сборы в мире: + $39 537 064 = $87 809 024
Сборы в России: $207 060
Мировая премьера: 14 мая 2018
Премьера (РФ): 4 октября 2018, «UPI»
Wbahjdjq htkbp: 29 октября 2018, «Universal»
Описание: Внедриться в Ку-Клукс-Клан — задача не из легких, особенно если ты чернокожий. Но целеустремленного полицейского из Колорадо такие мелочи не смущают. Вместе с напарником-евреем он вступает в неравный бой с опаснейшими противниками.-Качество Источник: Torrentcа: BDRemux (NNMClub)
Качество: BDRip
Тип: HD (720p)
Формат файла: M4V
Видео: H.264, 1280x544, 2.35:1, 3 500 Kbps, 23.976 (24000/1001) fps
Аудио 1: Русский/Дублированный (iTunes), AAC LC / 2.0 / 160 Kbps / 48.0 KHz
Аудио 2: Английский/Оригинальная дорожка , AAC LC / 2.0 / 160 Kbps / 48.0 KHz
Аудио 3: Русский/Дублированный (iTunes), AC-3 / 5.1 / 384 Kbps / 48.0 KHz
Аудио 4: Английский/Оригинальная дорожка , AC-3 / 5.1 / 640 Kbps / 48.0 KHz
Субтитры: Английские полные
-

iTunes Meta Tags

Sort Name: BlacKkKlansman
XID: Apple:vendor_id:2018-1093170
contentID: 1418037789
Copyright: © 2018 Focus Features. All Rights Reserved.
Screenwriters: Чарли Вачтел, Дэвид Рабиновиц, Кевин Уиллмотт
Producers: Джейсон Блум, Спайк Ли, Рэймонд Мэнсфилд
Director: Спайк Ли
Cast: Алек Болдуин, Джон Дэвид Вашингтон, Исайя Уитлок мл., Роберт Джон Бёрк, Брайан Тарантина, Артур Дж. Наскарелла, Кен Гарито, Фред Уэллер, Адам Драйвер, Майкл Бушеми, Эшли Эткинсон
Studio: Focus Features
Rating: 5
Long Description: Внедриться в Ку-Клукс-Клан — задача не из легких, особенно если ты чернокожий. Но целеустремленного полицейского из Колорадо такие мелочи не смущают. Вместе с напарником-евреем он вступает в неравный бой с опаснейшими противниками.
Description: Внедриться в Ку-Клукс-Клан — задача не из легких, особенно если ты чернокожий. Но целеустремленного полицейского из Колорадо такие мелочи не смущают. Вместе с напарником-евреем он вступает в неравный бой с опаснейшими противниками.
Release Date: 2018-08-10T07:00:00Z
Genre: Drama
Artist: Spike Lee
Name: BlacKkKlansman

MediaInfo

General
Complete name                            : /Users/imac/HandBrake/BlacKkKlansman (720p HD).m4v
Format                                   : MPEG-4
Codec ID                                 : M4V  (M4V /M4A /mp42/isom)
File size                                : 4.55 GiB
Duration                                 : 2h 14mn
Overall bit rate mode                    : Variable
Overall bit rate                         : 4 835 Kbps
Movie name                               : BlacKkKlansman
Performer                                : Spike Lee
Director                                 : Спайк Ли
Actor                                    : Алек Болдуин / Джон Дэвид Вашингтон / Исайя Уитлок мл. / Роберт Джон Бёрк / Брайан Тарантина / Артур Дж. Наскарелла / Кен Гарито / Фред Уэллер / Адам Драйвер / Майкл Бушеми / Эшли Эткинсон
Screenplay by                            : Чарли Вачтел / Дэвид Рабиновиц / Кевин Уиллмотт
Producer                                 : Джейсон Блум / Спайк Ли / Рэймонд Мэнсфилд
Production studio                        : Focus Features
Genre                                    : Drama
ContentType                              : Short Film
Description                              : Внедриться в Ку-Клукс-Клан — задача не из легких, особенно если ты чернокожий. Но целеустремленного полицейского из Колорадо такие мелочи не смущают. Вместе с напарником-евреем он вступает в неравный бой с опаснейшими противниками.
Recorded date                            : UTC 2018-08-10 07:00:00
Encoded date                             : UTC 2018-12-01 10:42:45
Tagged date                              : UTC 2018-12-01 10:46:46
Copyright                                : © 2018 Focus Features. All Rights Reserved.
Cover                                    : Yes
Rating                                   : None
Title/Sort                               : BlacKkKlansman
LongDescription                          : Внедриться в Ку-Клукс-Клан — задача не из легких, особенно если ты чернокожий. Но целеустремленного полицейского из Колорадо такие мелочи не смущают. Вместе с напарником-евреем он вступает в неравный бой с опаснейшими противниками.
HDVideo                                  : Yes
AppleStoreCatalogID                      : 1418037789
Vendor                                   : Apple:vendor_id:2018-1093170
ContentRating                            : mpaa|R|400|
Video #1
ID                                       : 1
Format                                   : AVC
Format/Info                              : Advanced Video Codec
Format profile                           : High@L3.1
Format settings                          : 3 Ref Frames
Format settings, CABAC                   : No
Format settings, ReFrames                : 3 frames
Codec ID                                 : avc1
Codec ID/Info                            : Advanced Video Coding
Duration                                 : 2h 14mn
Source duration                          : 2h 14mn
Bit rate                                 : 3 500 Kbps
Width                                    : 1 280 pixels
Height                                   : 544 pixels
Display aspect ratio                     : 2.35:1
Frame rate mode                          : Variable
Frame rate                               : 23.976 (24000/1001) fps
Minimum frame rate                       : 23.974 fps
Maximum frame rate                       : 23.981 fps
Color space                              : YUV
Chroma subsampling                       : 4:2:0
Bit depth                                : 8 bits
Scan type                                : Progressive
Bits/(Pixel*Frame)                       : 0.210
Stream size                              : 3.29 GiB (72%)
Source stream size                       : 3.29 GiB (72%)
Title                                    : Main Program
Writing library                          : x264 core 155 r2901 7d0ff22
Encoding settings                        : cabac=0 / ref=3 / deblock=1:-3:-3 / analyse=0x3:0x113 / me=umh / subme=9 / psy=1 / psy_rd=1.00:0.15 / mixed_ref=1 / me_range=32 / chroma_me=1 / trellis=0 / 8x8dct=1 / cqm=0 / deadzone=21,11 / fast_pskip=0 / chroma_qp_offset=-2 / threads=17 / lookahead_threads=1 / sliced_threads=0 / nr=0 / decimate=0 / interlaced=0 / bluray_compat=0 / constrained_intra=0 / bframes=3 / b_pyramid=0 / b_adapt=2 / b_bias=0 / direct=1 / weightb=0 / open_gop=0 / weightp=0 / keyint=240 / keyint_min=24 / scenecut=40 / intra_refresh=0 / rc_lookahead=40 / rc=2pass / mbtree=1 / bitrate=3500 / ratetol=1.0 / qcomp=0.65 / qpmin=0 / qpmax=69 / qpstep=4 / cplxblur=20.0 / qblur=0.5 / vbv_maxrate=9500 / vbv_bufsize=9500 / nal_hrd=none / filler=0 / ip_ratio=1.40 / aq=1:1.10
Language                                 : English
Encoded date                             : UTC 2018-12-01 10:42:45
Tagged date                              : UTC 2018-12-01 10:42:54
Color range                              : Limited
Color primaries                          : BT.709
Transfer characteristics                 : BT.709
Matrix coefficients                      : BT.709
Menus                                    : 7,8
Codec configuration box                  : avcC
Video #2
ID                                       : 8
Format                                   : JPEG
Codec ID                                 : jpeg
Duration                                 : 2h 14mn
Bit rate mode                            : Variable
Bit rate                                 : 532 bps
Width                                    : 640 pixels
Height                                   : 272 pixels
Display aspect ratio                     : 2.35:1
Frame rate mode                          : Variable
Frame rate                               : 0.002 fps
Minimum frame rate                       : 0.002 fps
Maximum frame rate                       : 0.005 fps
Color space                              : YUV
Chroma subsampling                       : 4:2:0
Bit depth                                : 8 bits
Compression mode                         : Lossy
Bits/(Pixel*Frame)                       : 1.528
Stream size                              : 649 KiB (0%)
Title                                    : Chapter Images
Language                                 : English
Default                                  : No
Encoded date                             : UTC 2018-12-01 10:44:05
Tagged date                              : UTC 2018-12-01 10:44:05
Menu For                                 : 1
ColorSpace_ICC                           : RGB
Audio #1
ID                                       : 2
Format                                   : AAC LC
Format/Info                              : Advanced Audio Codec Low Complexity
Codec ID                                 : mp4a-40-2
Duration                                 : 2h 14mn
Source duration                          : 2h 14mn
Bit rate mode                            : Variable
Bit rate                                 : 155 Kbps
Maximum bit rate                         : 246 Kbps
Channel(s)                               : 2 channels
Channel layout                           : L R
Sampling rate                            : 48.0 KHz
Frame rate                               : 46.875 fps (1024 SPF)
Compression mode                         : Lossy
Stream size                              : 150 MiB (3%)
Source stream size                       : 150 MiB (3%)
Title                                    : Russian Stereo
Language                                 : Russian
Default                                  : Yes
Alternate group                          : 1
Encoded date                             : UTC 2018-12-01 10:42:45
Tagged date                              : UTC 2018-12-01 10:44:00
Fallback From                            : 4
Audio #2
ID                                       : 3
Format                                   : AAC LC
Format/Info                              : Advanced Audio Codec Low Complexity
Codec ID                                 : mp4a-40-2
Duration                                 : 2h 14mn
Source duration                          : 2h 14mn
Bit rate mode                            : Variable
Bit rate                                 : 157 Kbps
Maximum bit rate                         : 271 Kbps
Channel(s)                               : 2 channels
Channel layout                           : L R
Sampling rate                            : 48.0 KHz
Frame rate                               : 46.875 fps (1024 SPF)
Compression mode                         : Lossy
Stream size                              : 152 MiB (3%)
Source stream size                       : 152 MiB (3%)
Title                                    : English Stereo
Language                                 : English
Default                                  : No
Alternate group                          : 1
Encoded date                             : UTC 2018-12-01 10:42:45
Tagged date                              : UTC 2018-12-01 10:44:00
Fallback From                            : 5
Audio #3
ID                                       : 4
Format                                   : AC-3
Format/Info                              : Audio Coding 3
Commercial name                          : Dolby Digital
Codec ID                                 : ac-3
Duration                                 : 2h 14mn
Bit rate mode                            : Constant
Bit rate                                 : 384 Kbps
Channel(s)                               : 6 channels
Channel layout                           : L R C LFE Ls Rs
Sampling rate                            : 48.0 KHz
Frame rate                               : 31.250 fps (1536 SPF)
Bit depth                                : 16 bits
Compression mode                         : Lossy
Stream size                              : 370 MiB (8%)
Title                                    : Russian DD 5.1
Language                                 : Russian
Service kind                             : Complete Main
Default                                  : Inherited From: 2
Alternate group                          : 1
Encoded date                             : UTC 2018-12-01 10:42:45
Tagged date                              : UTC 2018-12-01 10:44:00
Fallback To                              : 2
Audio #4
ID                                       : 5
Format                                   : AC-3
Format/Info                              : Audio Coding 3
Commercial name                          : Dolby Digital
Codec ID                                 : ac-3
Duration                                 : 2h 14mn
Bit rate mode                            : Constant
Bit rate                                 : 640 Kbps
Channel(s)                               : 6 channels
Channel layout                           : L R C LFE Ls Rs
Sampling rate                            : 48.0 KHz
Frame rate                               : 31.250 fps (1536 SPF)
Bit depth                                : 16 bits
Compression mode                         : Lossy
Stream size                              : 617 MiB (13%)
Title                                    : English DD 5.1
Language                                 : English
Service kind                             : Complete Main
Default                                  : No
Alternate group                          : 1
Encoded date                             : UTC 2018-12-01 10:42:45
Tagged date                              : UTC 2018-12-01 10:44:00
Fallback To                              : 3
Text
ID                                       : 6
Format                                   : Timed Text
Muxing mode                              : sbtl
Codec ID                                 : tx3g
Duration                                 : 2h 8mn
Bit rate mode                            : Variable
Bit rate                                 : 96 bps
Stream size                              : 90.0 KiB (0%)
Title                                    : English full
Language                                 : English
Default                                  : Yes
Forced                                   : No
Alternate group                          : 2
Encoded date                             : UTC 2018-12-01 10:42:45
Tagged date                              : UTC 2018-12-01 10:43:57
Menu #1
00:00:00.000                             : 00:00:00.000
00:04:10.250                             : 00:04:10.250
00:13:54.876                             : 00:13:54.876
00:23:16.729                             : 00:23:16.604
00:27:56.508                             : 00:27:56.508
00:36:10.669                             : 00:36:10.668
00:43:21.557                             : 00:43:21.557
00:48:30.616                             : 00:48:30.616
00:54:58.629                             : 00:54:58.629
00:59:48.543                             : 00:59:48.543
01:07:04.771                             : 01:07:04.771
01:16:37.927                             : 01:16:37.802
01:22:20.394                             : 01:22:20.394
01:29:38.123                             : 01:29:38.123
01:39:10.653                             : 01:39:10.653
01:48:27.042                             : 01:48:27.042
01:56:05.709                             : 01:56:05.584
02:00:43.945                             : 02:00:43.945
02:03:57.430                             : 02:03:57.430
02:09:03.611                             : 02:09:03.569
Menu #2
ID                                       : 7
Codec ID                                 : text
Duration                                 : 2h 14mn
Language                                 : English
Encoded date                             : UTC 2018-12-01 10:44:00
Tagged date                              : UTC 2018-12-01 10:44:00
Bit rate mode                            : CBR
Menu For                                 : 1
00:00:00.000                             : 00:00:00.000
00:04:10.250                             : 00:04:10.250
00:13:54.876                             : 00:13:54.876
00:23:16.729                             : 00:23:16.604
00:27:56.508                             : 00:27:56.508
00:36:10.669                             : 00:36:10.668
00:43:21.557                             : 00:43:21.557
00:48:30.616                             : 00:48:30.616
00:54:58.629                             : 00:54:58.629
00:59:48.543                             : 00:59:48.543
01:07:04.771                             : 01:07:04.771
01:16:37.927                             : 01:16:37.802
01:22:20.394                             : 01:22:20.394
01:29:38.123                             : 01:29:38.123
01:39:10.653                             : 01:39:10.653
01:48:27.042                             : 01:48:27.042
01:56:05.709                             : 01:56:05.584
02:00:43.945                             : 02:00:43.945
02:03:57.430                             : 02:03:57.430
02:09:03.611                             : 02:09:03.569

x264 лог

x264 [info]: frame I:1924  Avg QP:16.07  size:118422
x264 [info]: frame P:60662 Avg QP:18.50  size: 33099
x264 [info]: frame B:131358 Avg QP:19.68  size:  9846
x264 [info]: consecutive B-frames:  2.6% 11.5% 29.6% 56.4%
x264 [info]: mb I  I16..4:  5.5% 65.3% 29.2%
x264 [info]: mb P  I16..4:  0.8%  3.9%  1.7%  P16..4: 48.3% 27.6% 12.9%  0.0%  0.0%    skip: 4.9%
x264 [info]: mb B  I16..4:  0.1%  0.7%  0.2%  B16..8: 49.8% 10.3%  1.7%  direct: 3.8%  skip:33.5%  L0:44.2% L1:50.1% BI: 5.7%
x264 [info]: 8x8 transform intra:64.2% inter:44.9%
x264 [info]: coded y,uvDC,uvAC intra: 89.6% 80.0% 60.5% inter: 26.5% 19.8% 10.0%
x264 [info]: i16 v,h,dc,p: 39% 18% 13% 30%
x264 [info]: i8 v,h,dc,ddl,ddr,vr,hd,vl,hu:  9%  8%  6% 12% 16% 15% 14% 11% 11%
x264 [info]: i4 v,h,dc,ddl,ddr,vr,hd,vl,hu:  8%  8%  3% 13% 17% 16% 14% 11%  9%
x264 [info]: i8c dc,h,v,p: 52% 16% 20% 12%
x264 [info]: ref P L0: 65.5% 19.8% 14.7%
x264 [info]: ref B L0: 72.4% 27.6%
x264 [info]: kb/s:3490.18

Скриншоты

-

подготовлен для просмотра на Apple TV, iPad, iPhone, iPod Touch.
Для просмотра данного релиза на компьютере с ОС Windows рекомендуется использовать VLC media player


[chi5o.com]_t_5652791.torrent
Торрент: Зарегистрирован ·  [ 2019-01-08 13:45 ] ·  9fda1128018d24bdc0140f197e285c99859a889f

46 KB

Статус: проверено
Скачан: 0 раз
Размер: 4.55 GB
Оценка: 
(Голосов: 0)
Сказали спасибо: 0  Спасибо
Похожие темы
[Профиль]    [ЛС]
Показать сообщения:    
Ответить на тему

Текущее время: Сегодня 16:59

Часовой пояс: GMT + 7



Вы не можете начинать темы
Вы не можете отвечать на сообщения
Вы не можете редактировать свои сообщения
Вы не можете удалять свои сообщения
Вы не можете голосовать в опросах
Вы не можете прикреплять файлы к сообщениям
Вы можете скачивать файлы


Blackview BV5800 IP68 Waterproof 5.5" Rugged Smartphone 2GB+16GB Fingerprint 5580mAh Quick Charge NF.. | Klein- & Leichtkraftradteile (1) | Trending Now