(Electroacoustic, Post-Industrial) [WEB] Colin Potter - The Abominable Slowman - 2017, FLAC (tracks), lossless

Ответить на тему
Статистика раздачи [Обновить пиров]
Размер:  222 MB   |    Зарегистрирован:  13 дней   |    Скачан:  0 раз

Полного источника не было: Никогда

 
   
 
 
 
Автор Сообщение

chi5o.com

Создавать темы 08-Янв-2019 12:43

[Цитировать]

Colin Potter • "The Abominable Slowman" [ABST004]
Born: 1952 • United Kingdom (York, North Yorkshire)


ЖАНРЫ: Electroacoustic • Post-Industrial • Minimal Synth • Krautrock
ИСТОЧНИКИ: redacted [bandcamp] ~ ФОРМАТ: Album • web
КОДЕК, БИТРЕЙТ, ТИП: [*.flac] • lossless • tracks
ИЗДАНИЕ: 2017, Abstrakce Records (Spain)

.
TRACK LISTING
01. Not Yeti [08:02]
02. The Knights Are Drawing In [08:35]
03. Unstable Tennis [07:28]
04. Never Underestimate the Power of Nothing [05:57]
05. It's Coming [05:06]

total length [00:35:06]

✓auCDtect

-----------------------
DON'T MODIFY THIS FILE
-----------------------
PERFORMER: auCDtect Task Manager, ver. 1.6.0 RC1 build 1.6.0.1Copyright (c) 2008-2010 y-soft. All rights reserved
ANALYZER: auCDtect: CD records authenticity detector, version 0.8.2Copyright (c) 2004 Oleg Berngardt. All rights reserved.Copyright (c) 2004 Alexander Djourik. All rights reserved.
FILE: 05. It's Coming.flac Size: 29367489 Hash: 01D0F7411AD28EE4C2C6FE7617851193 Accuracy: -m0 Conclusion: CDDA 100% Signature: 7BF0604E346E596346FB847A645258DD867FD6E1FILE: 04. Never Underestimate the Power of Nothing.flac Size: 34362936 Hash: A356E6DABC22568B894D396E423082C8 Accuracy: -m0 Conclusion: CDDA 100% Signature: AB81BFA182FAEAF724BB48DC6F08AC05FDBD3E59FILE: 03. Unstable Tennis.flac Size: 55736801 Hash: 70FACFCAF0B354F6E318A9CEED2B7E89 Accuracy: -m0 Conclusion: CDDA 100% Signature: F677DDC6E7A1AFC04067751AF67FFFE06E99CFEFFILE: 02. The Knights Are Drawing In.flac Size: 54964529 Hash: 65105FBD369F94256402550A68DDB20C Accuracy: -m0 Conclusion: CDDA 100% Signature: 6421685FD1B7F657D13C8EE1351D7558C784C12DFILE: 01. Not Yeti.flac Size: 56799965 Hash: 7102D63B6E0219A8B7E15307EF7BAE05 Accuracy: -m0 Conclusion: CDDA 100% Signature: 58476B2880F99E375E01499746BDA5C686164CA3

dynamic range

foobar2000 1.3.9 / Dynamic Range Meter 1.1.1log date: 2019-01-06 03:01:13
--------------------------------------------------------------------------------Analyzed: Colin Potter / The Abominable Slowman--------------------------------------------------------------------------------
DR Peak RMS Duration Track--------------------------------------------------------------------------------DR10 -0.28 dB -11.99 dB 8:01 01-Not YetiDR11 -0.26 dB -13.42 dB 8:35 02-The Knights Are Drawing InDR9 -0.31 dB -10.91 dB 7:27 03-Unstable TennisDR11 -0.23 dB -13.76 dB 5:57 04-Never Underestimate the Power of NothingDR9 -0.31 dB -11.57 dB 5:05 05-It's Coming--------------------------------------------------------------------------------
Number of tracks: 5Official DR value: DR10
Samplerate: 44100 HzChannels: 2Bits per sample: 16Bitrate: 767 kbpsCodec: FLAC================================================================================

spectrogram




[chi5o.com]_t_5671157.torrent
Торрент: Зарегистрирован ·  [ 2019-01-08 12:43 ] ·  e0a0029592a299c1d568007f9d4ea3d1e74302bb

18 KB

Статус: проверено
Скачан: 0 раз
Размер: 222 MB
Оценка: 
(Голосов: 0)
Сказали спасибо: 0  Спасибо
Похожие темы
[Профиль]    [ЛС]
Показать сообщения:    
Ответить на тему

Текущее время: Сегодня 16:53

Часовой пояс: GMT + 7



Вы не можете начинать темы
Вы не можете отвечать на сообщения
Вы не можете редактировать свои сообщения
Вы не можете удалять свои сообщения
Вы не можете голосовать в опросах
Вы не можете прикреплять файлы к сообщениям
Вы можете скачивать файлы


Onepunch-Man 1 | Catene Da Neve 9Mm 155/80R13 Omologate Certificate A Norma Di Legge 1558013 | Top Paid Android Games Sep 2018 - 6.9 GB