Один дома / Home Alone (Крис Коламбус / Chris Columbus) [1990, США, комедия, семейный, HDRip] DVO (Премьер Видео Фильм) + DVO (Лазер Видео) + AVO (Михалёв-ранний) + AVO (Дохалов) + VO (Бойков) + VO (Никитин)

Ответить на тему
Статистика раздачи [Обновить пиров]
Размер:  1.88 GB   |    Зарегистрирован:  10 дней   |    Скачан:  0 раз

Полного источника не было: Никогда

 
   
 
 
 
Автор Сообщение

chi5o.com

Создавать темы 07-Янв-2019 17:57

[Цитировать]

ВСЕХ С НАСТУПАЮЩИМ НОВЫМ 2019 ГОДОМ! -Один дома / Home Alone
Год выхода: 1990
Страна: США
Жанр: комедия, семейный
Продолжительность: 01:42:54
Перевод: Профессиональный (двухголосый закадровый) - Премьер Видео Фильм
Текст читают: Игорь Тарадайкин и Татьяна Божок
Перевод 2: Профессиональный (двухголосый закадровый) - Лазер Видео
Текст читают: Александр Новиков и Мария Овчинникова.
Перевод 3: Авторский (одноголосый закадровый) - Алексей Михалёв (ранний)
Перевод 4: Авторский (одноголосый закадровый) - Вартан Дохалов
Перевод 5: Одноголосый закадровый - Евгений Бойков (переговорщик Дохалова)
Перевод 6: Одноголосый закадровый - Никитин (поверх французского дубляжа)
Субтитры: нет
Режиссер: Крис Коламбус / Chris Columbus
В ролях: Маколей Калкин (Kevin McCallister), Джо Пеши (Harry Lime), Дэниел Стерн (Marv Merchants), Кэтрин О'Хара (Kate McCallister), Джон Хёрд (Peter McCallister), Робертс Блоссом (Old Man Marley), Джерри Бэммен (Uncle Frank), Девин Рэтрей (Buzz McCallister), Джон Кэнди (Gus Polinski), Киран Калкин (Fuller McCallister)-Мировая премьера: 10 ноября 1990-Описание: Американское семейство отправляется из Чикаго в Европу, но в спешке сборов бестолковые родители забывают дома… одного из своих детей. Юное создание, однако, не теряется и демонстрирует чудеса изобретательности. И когда в дом залезают грабители, им приходится не раз пожалеть о встрече с милым крошкой.-Огромная благодарность:
[url=profile.php?mode=viewprofile&u=38713389]Pucs1982[/url] - перевод Премьер Видео Фильм, оцифрованный со своей лицензионной видеокассеты.
[url=profile.php?mode=viewprofile&u=760904]RoxMarty[/url]:
1 - перевод Лазер Видео, оцифрованный со своей лицензионной видеокассеты
2 - переводы Михалёва-раннего, Дохалова и Никитина, оцифрованные со своих видеокассет.
[url=profile.php?mode=viewprofile&u=1060964]team_6strun[/url] - перевод Бойкова, оцифрованный со своей видеокассеты и обработанный.
[url=profile.php?mode=viewprofile&u=3190918]JUSTKANT[/url] - обработка звука (кроме Бойкова) и синхронизация переводов.-Рейтинг

MPAA: PG - Рекомендуется присутствие родителей.-Качество видео: HDRip (Источник: Torrentc)
Формат файла: AVI -> //Сэмпл//
Видео: XviD, 720x384 (1,85:1), 23.976 fps, 1441 kbps avg
Аудио:
1 - 48 khz, AC3 Dolby Digital, 2/0 (L,R) ch, ~192 kbps [Премьер Видео Фильм] VHSRip
2 - 48 khz, AC3 Dolby Digital, 2/0 (L,R) ch, ~192 kbps [Лазер Видео] VHSRip
3 - 48 khz, AC3 Dolby Digital, 2/0 (L,R) ch, ~192 kbps [Михалёв-ранний] VHSRip
4 - 48 khz, AC3 Dolby Digital, 2/0 (L,R) ch, ~192 kbps [Дохалов] VHSRip (отдельно)
5 - 48 khz, AC3 Dolby Digital, 2/0 (L,R) ch, ~192 kbps [Бойков] VHSRip (отдельно)
6 - 48 khz, AC3 Dolby Digital, 2/0 (L,R) ch, ~192 kbps [Никитин] VHSRip (отдельно)-ОБНОВЛЕНИЕ РЕЛИЗА ОТ 31.12.2018.
Заменён видеоряд
Переводы Лазер Видео и Михалёва-раннего заменены на такие же, но немного лучшие по качеству звука
Добавлены в раздачу переводы Премьер Видео Фильм и Дохалов, отличающиеся по качеству звука от таких же переводов на трекере.
Все доказательства в сэмпле, слушайте и сами сравнивайте. Выбирайте тот перевод, который вам больше всего понравится.
Добавлен в раздачу ещё один раритетный перевод Никитина под французский дубляж

Просьба перескачать торрент!
-Один дома 2: Затерянный в Нью-Йорке / Home Alone 2: Lost in New York / 1992 / BDRip - НТВ + Премьер Видео Фильм + Дохалов + Марченко + Прямостанов

MediaInfo

General
Complete name : D:\ТОРРЕНТЫ (Фильмы для рутрекера)\Один дома\Один дома (Премьер Видео Фильм + Лазер Видео + Михалёв-ранний).avi
Format : AVI
Format/Info : Audio Video Interleave
File size : 1.46 GiB
Duration : 1 h 42 min
Overall bit rate : 2 036 kb/s
Movie name : Один дома / Home Alone (Премьер Видео Фильм + Лазер Видео + Михалёв-ранний)
Director : JUSTKANT
Writing application : VirtualDubMod 1.5.10.2 (build 2540/release)
Copyright : Премьер Видео Фильм - VHSRip (Pucs1982), Лазер Видео - VHSRip (RoxMarty) и Михалёв-ранний - VHSRip (RoxMarty)
Comment : Бойков - VHSRip (team_6strun), Дохалов - VHSRip (RoxMarty) и Никитин - VHSRip (RoxMarty)
Video
ID : 0
Format : MPEG-4 Visual
Format profile : Advanced Simple@L5
Format settings : BVOP1 / Custom Matrix
Format settings, BVOP : 1
Format settings, QPel : No
Format settings, GMC : No warppoints
Format settings, Matrix : Custom
Codec ID : XVID
Codec ID/Hint : XviD
Duration : 1 h 42 min
Bit rate : 1 441 kb/s
Width : 720 pixels
Height : 384 pixels
Display aspect ratio : 1.85:1
Frame rate : 23.976 (24000/1001) FPS
Color space : YUV
Chroma subsampling : 4:2:0
Bit depth : 8 bits
Scan type : Progressive
Compression mode : Lossy
Bits/(Pixel*Frame) : 0.217
Stream size : 1.04 GiB (71%)
Writing library : XviD 1.2.1 (UTC 2008-12-04)
Audio #1
ID : 1
Format : AC-3
Format/Info : Audio Coding 3
Commercial name : Dolby Digital
Codec ID : 2000
Duration : 1 h 42 min
Bit rate mode : Constant
Bit rate : 192 kb/s
Channel(s) : 2 channels
Channel layout : L R
Sampling rate : 48.0 kHz
Frame rate : 31.250 FPS (1536 SPF)
Bit depth : 16 bits
Compression mode : Lossy
Stream size : 141 MiB (9%)
Alignment : Split accross interleaves
Interleave, duration : 42 ms (1.00 video frame)
Interleave, preload duratio : 500 ms
Title : ПРЕМЬЕР ВИДЕО ФИЛЬМ: Игорь Тарадайкин и Татьяна Божок
Service kind : Complete Main
Audio #2
ID : 2
Format : AC-3
Format/Info : Audio Coding 3
Commercial name : Dolby Digital
Codec ID : 2000
Duration : 1 h 42 min
Bit rate mode : Constant
Bit rate : 192 kb/s
Channel(s) : 2 channels
Channel layout : L R
Sampling rate : 48.0 kHz
Frame rate : 31.250 FPS (1536 SPF)
Bit depth : 16 bits
Compression mode : Lossy
Stream size : 141 MiB (9%)
Alignment : Split accross interleaves
Interleave, duration : 42 ms (1.00 video frame)
Interleave, preload duratio : 500 ms
Title : ЛАЗЕР ВИДЕО: Александр Новиков и Мария Овчинникова
Service kind : Complete Main
Audio #3
ID : 3
Format : AC-3
Format/Info : Audio Coding 3
Commercial name : Dolby Digital
Codec ID : 2000
Duration : 1 h 42 min
Bit rate mode : Constant
Bit rate : 192 kb/s
Channel(s) : 2 channels
Channel layout : L R
Sampling rate : 48.0 kHz
Frame rate : 31.250 FPS (1536 SPF)
Bit depth : 16 bits
Compression mode : Lossy
Stream size : 141 MiB (9%)
Alignment : Split accross interleaves
Interleave, duration : 42 ms (1.00 video frame)
Interleave, preload duratio : 500 ms
Title : Алексей Михалёв-ранний: VHSRip (пиратка)
Service kind : Complete Main

Скриншоты



[chi5o.com]_t_4472588.torrent
Торрент: Зарегистрирован ·  [ 2019-01-07 17:57 ] ·  2def18ceadaadb2a4a7736ee6469ee6b8e187b4f

20 KB

Статус: проверено
Скачан: 0 раз
Размер: 1.88 GB
Оценка: 
(Голосов: 0)
Сказали спасибо: 0  Спасибо
Похожие темы
[Профиль]    [ЛС]
Показать сообщения:    
Ответить на тему

Текущее время: Сегодня 12:41

Часовой пояс: GMT + 7



Вы не можете начинать темы
Вы не можете отвечать на сообщения
Вы не можете редактировать свои сообщения
Вы не можете удалять свои сообщения
Вы не можете голосовать в опросах
Вы не можете прикреплять файлы к сообщениям
Вы можете скачивать файлы


Canada Remembrance 5 Coin Poppy Set, 2004P, 2008P, 2010 and 2015. | Vests & Waistcoats | 4 3 2017-08-27The Last Ship - Bread and Circuses