(House, Hard House, MPB) [CDM] Luciana Mello - Assim Que Se Faz Remixes - 2002, FLAC (tracks+.cue), lossless

Ответить на тему
Статистика раздачи [Обновить пиров]
Размер:  451 MB   |    Зарегистрирован:  1 месяц 11 дней   |    Скачан:  0 раз

Полного источника не было: Никогда

 
   
 
 
 
Автор Сообщение

chi5o.com

Создавать темы 07-Янв-2019 15:53

[Цитировать]

Luciana Mello / Assim Que Se Faz Remixes
Жанр: House, Hard House, MPB
Носитель: CDM
Страна-производитель диска (релиза): Brazil
Год издания: 2002
Издатель (лейбл): Trama
Номер по каталогу: 557-2
Страна исполнителя (группы): Brazil
Аудиокодек: FLAC (*.flac)
Тип рипа: tracks+.cue
Битрейт аудио: lossless
Продолжительность: 1:02:20
Источник (релизер): Собственный рип
Наличие сканов в содержимом раздачи: нет
Треклист:
01. Assim Que Se Faz (By O Time) [4:05]
02. Assim Que Se Faz (Party Mix) [3:57]
03. Assim Que Se Faz (Pista) [3:55]
04. Assim Que Se Faz (By Fat Head) [3:13]
05. Assim Que Se Faz (Miami) [3:56]
06. Assim Que Se Faz (Hot Boys Mix) [3:52]
07. Assim Que Se Faz (Memê Rádio Hit) [4:03]
08. Assim Que Se Faz (Memê Club Remix) [7:43]
09. Assim Que Se Faz (By Tauz) [4:01]
10. Assim Que Se Faz (Acústico Mix) [4:11]
11. Simples Desejo (Memê's Extended Mello-D Mix) [6:15]
12. Simples Desejo (Memê's Radio Mello-D) [4:51]
13. Simples Desejo (Manhã Mix) [3:39]
14. Simples Desejo (By Fat Head & De Morales) [4:39]

Лог создания рипа

Exact Audio Copy V1.3 from 2. September 2016
EAC extraction logfile from 2. January 2019, 14:03
Luciana Mello / Assim Que Se Faz Remixes
Used drive : Optiarc DVD RW AD-7710H Adapter: 1 ID: 0
Read mode : SecureUtilize accurate stream : YesDefeat audio cache : YesMake use of C2 pointers : No
Read offset correction : 48Overread into Lead-In and Lead-Out : NoFill up missing offset samples with silence : YesDelete leading and trailing silent blocks : NoNull samples used in CRC calculations : YesUsed interface : Native Win32 interface for Win NT & 2000Gap handling : Appended to previous track
Used output format : User Defined EncoderSelected bitrate : 1024 kBit/sQuality : HighAdd ID3 tag : NoCommand line compressor : C:\Program Files (x86)\Exact Audio Copy\FLAC\FLAC.EXEAdditional command line options : -6 -V -T "ARTIST=%artist%" -T "TITLE=%title%" -T "ALBUM=%albumtitle%" -T "DATE=%year%" -T "TRACKNUMBER=%tracknr%" -T "GENRE=%genre%" -T "COMMENT=%comment%" -T "BAND=%albuminterpret%" -T "ALBUMARTIST=%albuminterpret%" -T "COMPOSER=%composer%" %haslyrics%--tag-from-file=LYRICS="%lyricsfile%"%haslyrics% -T "DISCNUMBER=%cdnumber%" -T "TOTALDISCS=%totalcds%" -T "TOTALTRACKS=%numtracks%" %hascover%--picture="%coverfile%"%hascover% %source% -o %dest%
TOC of the extracted CD
Track | Start | Length | Start sector | End sector --------------------------------------------------------- 1 | 0:00.00 | 4:05.28 | 0 | 18402 2 | 4:05.28 | 3:57.12 | 18403 | 36189 3 | 8:02.40 | 3:55.30 | 36190 | 53844 4 | 11:57.70 | 3:12.60 | 53845 | 68304 5 | 15:10.55 | 3:56.25 | 68305 | 86029 6 | 19:07.05 | 3:51.38 | 86030 | 103392 7 | 22:58.43 | 4:03.05 | 103393 | 121622 8 | 27:01.48 | 7:42.62 | 121623 | 156334 9 | 34:44.35 | 4:01.00 | 156335 | 174409 10 | 38:45.35 | 4:11.13 | 174410 | 193247 11 | 42:56.48 | 6:14.67 | 193248 | 221364 12 | 49:11.40 | 4:51.03 | 221365 | 243192 13 | 54:02.43 | 3:39.12 | 243193 | 259629 14 | 57:41.55 | 4:39.03 | 259630 | 280557
Track 1
Filename C:\Users\José e Rosaura\Desktop\Luciana Mello - Assim Que Se Faz Remixes\01. Assim Que Se Faz (By O Time).wav
Pre-gap length 0:00:02.00
Peak level 92.9 % Extraction speed 2.4 X Track quality 99.9 % Test CRC 990E78F6 Copy CRC 990E78F6 Track not present in AccurateRip database Copy OK
Track 2
Filename C:\Users\José e Rosaura\Desktop\Luciana Mello - Assim Que Se Faz Remixes\02. Assim Que Se Faz (Party Mix).wav
Pre-gap length 0:00:01.46
Peak level 98.8 % Extraction speed 3.2 X Track quality 100.0 % Test CRC 36231B26 Copy CRC 36231B26 Track not present in AccurateRip database Copy OK
Track 3
Filename C:\Users\José e Rosaura\Desktop\Luciana Mello - Assim Que Se Faz Remixes\03. Assim Que Se Faz (Pista).wav
Pre-gap length 0:00:01.44
Peak level 98.8 % Extraction speed 2.9 X Track quality 99.9 % Test CRC 7B8AB7F7 Copy CRC 7B8AB7F7 Track not present in AccurateRip database Copy OK
Track 4
Filename C:\Users\José e Rosaura\Desktop\Luciana Mello - Assim Que Se Faz Remixes\04. Assim Que Se Faz (By Fat Head).wav
Pre-gap length 0:00:01.44
Peak level 98.8 % Extraction speed 3.5 X Track quality 100.0 % Test CRC C2D02ED9 Copy CRC C2D02ED9 Track not present in AccurateRip database Copy OK
Track 5
Filename C:\Users\José e Rosaura\Desktop\Luciana Mello - Assim Que Se Faz Remixes\05. Assim Que Se Faz (Miami).wav
Pre-gap length 0:00:01.44
Peak level 97.7 % Extraction speed 3.8 X Track quality 100.0 % Test CRC D465F74E Copy CRC D465F74E Track not present in AccurateRip database Copy OK
Track 6
Filename C:\Users\José e Rosaura\Desktop\Luciana Mello - Assim Que Se Faz Remixes\06. Assim Que Se Faz (Hot Boys Mix).wav
Pre-gap length 0:00:01.44
Peak level 97.7 % Extraction speed 4.1 X Track quality 100.0 % Test CRC C0709627 Copy CRC C0709627 Track not present in AccurateRip database Copy OK
Track 7
Filename C:\Users\José e Rosaura\Desktop\Luciana Mello - Assim Que Se Faz Remixes\07. Assim Que Se Faz (Memê Rádio Hit).wav
Pre-gap length 0:00:01.45
Peak level 97.7 % Extraction speed 4.3 X Track quality 100.0 % Test CRC 0FFC19C3 Copy CRC 0FFC19C3 Track not present in AccurateRip database Copy OK
Track 8
Filename C:\Users\José e Rosaura\Desktop\Luciana Mello - Assim Que Se Faz Remixes\08. Assim Que Se Faz (Memê Club Remix).wav
Pre-gap length 0:00:01.46
Peak level 97.7 % Extraction speed 4.4 X Track quality 99.9 % Test CRC 3C1FFDDE Copy CRC 3C1FFDDE Track not present in AccurateRip database Copy OK
Track 9
Filename C:\Users\José e Rosaura\Desktop\Luciana Mello - Assim Que Se Faz Remixes\09. Assim Que Se Faz (By Tauz).wav
Pre-gap length 0:00:01.43
Peak level 97.7 % Extraction speed 4.0 X Track quality 99.9 % Test CRC 964000B3 Copy CRC 964000B3 Track not present in AccurateRip database Copy OK
Track 10
Filename C:\Users\José e Rosaura\Desktop\Luciana Mello - Assim Que Se Faz Remixes\10. Assim Que Se Faz (Acústico Mix).wav
Pre-gap length 0:00:01.45
Peak level 97.7 % Extraction speed 1.6 X Track quality 100.0 % Test CRC B56D303C Copy CRC B56D303C Track not present in AccurateRip database Copy OK
Track 11
Filename C:\Users\José e Rosaura\Desktop\Luciana Mello - Assim Que Se Faz Remixes\11. Simples Desejo (Memê's Extended Mello-D Mix).wav
Pre-gap length 0:00:01.45
Peak level 97.7 % Extraction speed 1.6 X Track quality 100.0 % Test CRC 0D1BC767 Copy CRC 0D1BC767 Track not present in AccurateRip database Copy OK
Track 12
Filename C:\Users\José e Rosaura\Desktop\Luciana Mello - Assim Que Se Faz Remixes\12. Simples Desejo (Memê's Radio Mello-D).wav
Pre-gap length 0:00:01.45
Peak level 97.7 % Extraction speed 1.7 X Track quality 100.0 % Test CRC B4EEC184 Copy CRC B4EEC184 Track not present in AccurateRip database Copy OK
Track 13
Filename C:\Users\José e Rosaura\Desktop\Luciana Mello - Assim Que Se Faz Remixes\13. Simples Desejo (Manhã Mix).wav
Pre-gap length 0:00:01.45
Peak level 97.6 % Extraction speed 1.5 X Track quality 100.0 % Test CRC 61594529 Copy CRC 61594529 Track not present in AccurateRip database Copy OK
Track 14
Filename C:\Users\José e Rosaura\Desktop\Luciana Mello - Assim Que Se Faz Remixes\14. Simples Desejo (By Fat Head & De Morales).wav
Pre-gap length 0:00:01.45
Peak level 96.7 % Extraction speed 1.7 X Track quality 100.0 % Test CRC 429425AE Copy CRC 429425AE Track not present in AccurateRip database Copy OK
None of the tracks are present in the AccurateRip database
No errors occurred
End of status report
---- CUETools DB Plugin V2.1.6
[CTDB TOCID: Z2JHLBpcP683opJKPMUJ6KjD0l0-] disk not present in databaseSubmit result: Z2JHLBpcP683opJKPMUJ6KjD0l0- has been uploaded
==== Log checksum D10FB18A5E986CE24BECABD342038C2FE8DAE99BE2715920991587FA6579A092 ====

Содержание индексной карты (.CUE)

REM DATE 2002REM DISCID C70E9C0EREM COMMENT "ExactAudioCopy v1.3"PERFORMER "Luciana Mello"TITLE "Assim Que Se Faz Remixes"REM COMPOSER ""FILE "01. Assim Que Se Faz (By O Time).wav" WAVE TRACK 01 AUDIO TITLE "Assim Que Se Faz (By O Time)" PERFORMER "Luciana Mello" REM COMPOSER "" INDEX 01 00:00:00 TRACK 02 AUDIO TITLE "Assim Que Se Faz (Party Mix)" PERFORMER "Luciana Mello" REM COMPOSER "" INDEX 00 04:03:57FILE "02. Assim Que Se Faz (Party Mix).wav" WAVE INDEX 01 00:00:00 TRACK 03 AUDIO TITLE "Assim Que Se Faz (Pista)" PERFORMER "Luciana Mello" REM COMPOSER "" INDEX 00 03:55:43FILE "03. Assim Que Se Faz (Pista).wav" WAVE INDEX 01 00:00:00 TRACK 04 AUDIO TITLE "Assim Que Se Faz (By Fat Head)" PERFORMER "Luciana Mello" REM COMPOSER "" INDEX 00 03:53:61FILE "04. Assim Que Se Faz (By Fat Head).wav" WAVE INDEX 01 00:00:00 TRACK 05 AUDIO TITLE "Assim Que Se Faz (Miami)" PERFORMER "Luciana Mello" REM COMPOSER "" INDEX 00 03:11:16FILE "05. Assim Que Se Faz (Miami).wav" WAVE INDEX 01 00:00:00 TRACK 06 AUDIO TITLE "Assim Que Se Faz (Hot Boys Mix)" PERFORMER "Luciana Mello" REM COMPOSER "" INDEX 00 03:54:56FILE "06. Assim Que Se Faz (Hot Boys Mix).wav" WAVE INDEX 01 00:00:00 TRACK 07 AUDIO TITLE "Assim Que Se Faz (Memê Rádio Hit)" PERFORMER "Luciana Mello" REM COMPOSER "" INDEX 00 03:49:68FILE "07. Assim Que Se Faz (Memê Rádio Hit).wav" WAVE INDEX 01 00:00:00 TRACK 08 AUDIO TITLE "Assim Que Se Faz (Memê Club Remix)" PERFORMER "Luciana Mello" REM COMPOSER "" INDEX 00 04:01:34FILE "08. Assim Que Se Faz (Memê Club Remix).wav" WAVE INDEX 01 00:00:00 TRACK 09 AUDIO TITLE "Assim Que Se Faz (By Tauz)" PERFORMER "Luciana Mello" REM COMPOSER "" INDEX 00 07:41:19FILE "09. Assim Que Se Faz (By Tauz).wav" WAVE INDEX 01 00:00:00 TRACK 10 AUDIO TITLE "Assim Que Se Faz (Acústico Mix)" PERFORMER "Luciana Mello" REM COMPOSER "" INDEX 00 03:59:30FILE "10. Assim Que Se Faz (Acústico Mix).wav" WAVE INDEX 01 00:00:00 TRACK 11 AUDIO TITLE "Simples Desejo (Memê's Extended Mello-D Mix)" PERFORMER "Luciana Mello" REM COMPOSER "" INDEX 00 04:09:43FILE "11. Simples Desejo (Memê's Extended Mello-D Mix).wav" WAVE INDEX 01 00:00:00 TRACK 12 AUDIO TITLE "Simples Desejo (Memê's Radio Mello-D)" PERFORMER "Luciana Mello" REM COMPOSER "" INDEX 00 06:13:22FILE "12. Simples Desejo (Memê's Radio Mello-D).wav" WAVE INDEX 01 00:00:00 TRACK 13 AUDIO TITLE "Simples Desejo (Manhã Mix)" PERFORMER "Luciana Mello" REM COMPOSER "" INDEX 00 04:49:33FILE "13. Simples Desejo (Manhã Mix).wav" WAVE INDEX 01 00:00:00 TRACK 14 AUDIO TITLE "Simples Desejo (By Fat Head & De Morales)" PERFORMER "Luciana Mello" REM COMPOSER "" INDEX 00 03:37:42FILE "14. Simples Desejo (By Fat Head & De Morales).wav" WAVE INDEX 01 00:00:00

Лог проверки качества

-----------------------
DON'T MODIFY THIS FILE
-----------------------
PERFORMER: auCDtect Task Manager, ver. 1.6.0 RC1 build 1.6.0.1Copyright (c) 2008-2010 y-soft. All rights reservedhttp://y-soft.org
ANALYZER: auCDtect: CD records authenticity detector, version 0.8.2Copyright (c) 2004 Oleg Berngardt. All rights reserved.Copyright (c) 2004 Alexander Djourik. All rights reserved.
FILE: 14. Simples Desejo (By Fat Head & De Morales).flac Size: 36275650 Hash: 9CA9D545A35B98FC21F78B6DFB41BD8C Accuracy: -m0 Conclusion: CDDA 100% Signature: 2D4C11E9855BA93B97A239C1A2D0E0EE8A9EF3D7FILE: 13. Simples Desejo (Manhã Mix).flac Size: 28663497 Hash: BEC18C788F1D5D27C03FB018152F9331 Accuracy: -m0 Conclusion: CDDA 100% Signature: 5E6A44DA1FCE0D0C2D94E5BBA44D425BC9DD2FECFILE: 12. Simples Desejo (Memê's Radio Mello-D).flac Size: 35116486 Hash: E65C5C13D9E13DAB79F6AE6EE6A2F59E Accuracy: -m0 Conclusion: CDDA 100% Signature: EBA756D6749DCC0CBFB766CDAA061C8527D1E730FILE: 11. Simples Desejo (Memê's Extended Mello-D Mix).flac Size: 46488914 Hash: 79506C33C50293CF33405E00E8E4197A Accuracy: -m0 Conclusion: CDDA 100% Signature: 199B1044AFD4832208AE1A0631756536414132F0FILE: 10. Assim Que Se Faz (Acústico Mix).flac Size: 29735472 Hash: 6D379E56EACA1EBFD83255C7190F96F1 Accuracy: -m0 Conclusion: CDDA 100% Signature: F2C9DC34812D2B7F1DB2CE258B6A4E6057075D99FILE: 09. Assim Que Se Faz (By Tauz).flac Size: 26650516 Hash: A641A0C2F250B45210E24DB00A12E47E Accuracy: -m0 Conclusion: CDDA 100% Signature: 47E68904163215D6BBF7E82A464E2B79F1591E8AFILE: 08. Assim Que Se Faz (Memê Club Remix).flac Size: 58957835 Hash: E4B7DBEB1B5F96BA42933A9ED2892BCB Accuracy: -m0 Conclusion: CDDA 100% Signature: DAD5E90413DAB6EB44BE8000DD244D03282F74E9FILE: 07. Assim Que Se Faz (Memê Rádio Hit).flac Size: 30867554 Hash: 330B5F8651B2FF5F625BFB70A5492BCC Accuracy: -m0 Conclusion: CDDA 100% Signature: D81594D09109DAE2E27DC104B540287E91D4D5CBFILE: 06. Assim Que Se Faz (Hot Boys Mix).flac Size: 29735325 Hash: 15D523B4C92CFCE091BF1A0F57270F80 Accuracy: -m0 Conclusion: CDDA 100% Signature: 444E69393F1F90970C4FA07C7F97F6943AEF207DFILE: 05. Assim Que Se Faz (Miami).flac Size: 30834863 Hash: 295EA6E499DBBB3964DC6AEF236297F9 Accuracy: -m0 Conclusion: CDDA 100% Signature: 9696D55B50BC9CB7598AC2430FBF55A8981BCA84FILE: 04. Assim Que Se Faz (By Fat Head).flac Size: 26345692 Hash: 001292458ED90B77A827765868B15A56 Accuracy: -m0 Conclusion: CDDA 100% Signature: AEED992D1BDBB99D819B1868F4714C5AFB915976FILE: 03. Assim Que Se Faz (Pista).flac Size: 31375435 Hash: 3E9E9AA9341CA36E8E5DAD37801C4AD4 Accuracy: -m0 Conclusion: CDDA 100% Signature: 6AE2CC13EDDC4456FD3AC437268778F9B0E608AEFILE: 02. Assim Que Se Faz (Party Mix).flac Size: 31702984 Hash: 95C302B18C966D3D15BDBA521C1B592B Accuracy: -m0 Conclusion: CDDA 100% Signature: 6AE7E5EC7CD34F757843D4CA5689F40600AFD85CFILE: 01. Assim Que Se Faz (By O Time).flac Size: 30594725 Hash: 701E9E5A9126E7DFC2DC1FE14B67ECA5 Accuracy: -m0 Conclusion: CDDA 100% Signature: 8838A2F49C1ECD4CAC7F5105054E6541A7B7B08E


[chi5o.com]_t_5668475.torrent
Торрент: Зарегистрирован ·  [ 2019-01-07 15:53 ] ·  d145150da106588e814c806755a34c52af08b0a7

19 KB

Статус: проверено
Скачан: 0 раз
Размер: 451 MB
Оценка: 
(Голосов: 0)
Сказали спасибо: 0  Спасибо
Похожие темы
[Профиль]    [ЛС]
Показать сообщения:    
Ответить на тему

Текущее время: Сегодня 08:08

Часовой пояс: GMT + 7



Вы не можете начинать темы
Вы не можете отвечать на сообщения
Вы не можете редактировать свои сообщения
Вы не можете удалять свои сообщения
Вы не можете голосовать в опросах
Вы не можете прикреплять файлы к сообщениям
Вы можете скачивать файлы


Saichia Wongwirot | Estimated Delivery Time | Phim Gạo Nếp Gạo Tẻ 23 Trên HTV2