[TR24][OF] Hammock - Дискография (12 релизов) - 2005-2018 (Ambient, Post-Rock)

Ответить на тему
Статистика раздачи [Обновить пиров]
Размер:  6.81 GB   |    Зарегистрирован:  14 дней   |    Скачан:  0 раз

Полного источника не было: Никогда

 
   
 
 
 
Автор Сообщение

chi5o.com

Создавать темы 07-Янв-2019 14:01

[Цитировать]

Hammock Формат файла записи/Источник записи: [TR24][OF]
Наличие водяных знаков: Нет
Годы издания: 2005-2018
Жанр: Ambient, Post-Rock
Общая продолжительность: 12:24:55
Наличие сканов в содержимом раздачи: По-разному

Albums2005 - Kenotic (10th Anniversary Deluxe Edition) [Remastered] (01:35:28)

Издатель(лейбл): Hammock
Источник (релизер): Hammock shop
Треклист:
01. Before the Celebration (2015 Remastered Version) [2:03]
02. The Air Between Us (2015 Remastered Version) [3:42]
03. Through a Glass Darkly (2015 Remastered Version) [5:20]
04. Blankets of Night (2015 Remastered Version) [8:00]
05. Winter Light (2015 Remastered Version) [4:12]
06. Miles to Go Before Sleep (2015 Remastered Version) [5:16]
07. Wish (2015 Remastered Version) [5:20]
08. Overcast / Sorrow (2015 Remastered Version) [3:59]
09. Glacial (2015 Remastered Version) [1:47]
10. Kenotic (2015 Remastered Version) [4:15]
11. Stars in the Rearview Mirror (2015 Remastered Version) [7:04]
12. You May Emerge From This More Dead Than Alive (2015 Remastered Version) [1:14]
13. What Heaven Allows (2015 Remastered Version) [4:23]
14. The Silence (2015 Remastered Version) [5:20]
15. Dawn Begins to Creep (2015 Remastered Version) [4:12]
16. Rising Tide (2015 Remastered Version) [4:03]
17. Always Wishing You Were Somewhere Else - 2004 Kenotic Sessions (Alternate Mix) [2015 Remastered Version] [3:03]
18. Turning to Stone (2004 Kenotic Sessions) [3:45]
19. Last Horizon (2004 Kenotic Sessions) [3:36]
20. Departure (2004 Kenotic Sessions) [2:41]
21. Frailty (2004 Kenotic Sessions) [2:48]
22. Storm Sets In (2004 Kenotic Sessions) [3:16]
23. Underneath the Skin (2004 Kenotic Sessions) [6:09]
Формат файла: FLAC (*.flac)
Тип рипа: tracks
Разрядность: 24/44.1
Формат файла: PCM
Количество каналов: 2.0

Динамический диапазон

foobar2000 1.3.12 / Dynamic Range Meter 1.1.1log date: 2016-10-09 23:07:22
--------------------------------------------------------------------------------Analyzed: Hammock / Kenotic (10th Anniversary Deluxe Edition) [Remastered]--------------------------------------------------------------------------------
DR Peak RMS Duration Track--------------------------------------------------------------------------------DR8 -0.30 dB -10.88 dB 2:03 01-Before the Celebration (2015 Remastered Version)DR6 -0.30 dB -8.08 dB 3:42 02-The Air Between Us (2015 Remastered Version)DR7 -0.30 dB -11.13 dB 5:20 03-Through a Glass Darkly (2015 Remastered Version)DR6 -0.30 dB -8.44 dB 8:00 04-Blankets of Night (2015 Remastered Version)DR8 -0.30 dB -10.34 dB 4:12 05-Winter Light (2015 Remastered Version)DR8 -0.30 dB -10.19 dB 5:16 06-Miles to Go Before Sleep (2015 Remastered Version)DR8 -0.30 dB -10.30 dB 5:20 07-Wish (2015 Remastered Version)DR7 -0.30 dB -9.63 dB 3:59 08-Overcast / Sorrow (2015 Remastered Version)DR8 -0.30 dB -10.26 dB 1:47 09-Glacial (2015 Remastered Version)DR7 -0.30 dB -8.85 dB 4:15 10-Kenotic (2015 Remastered Version)DR7 -0.30 dB -9.68 dB 7:04 11-Stars in the Rearview Mirror (2015 Remastered Version)DR9 -0.30 dB -11.22 dB 1:14 12-You May Emerge From This More Dead Than Alive (2015 Remastered Version)DR7 -0.30 dB -10.68 dB 4:23 13-What Heaven Allows (2015 Remastered Version)DR6 -0.30 dB -9.05 dB 5:20 14-The Silence (2015 Remastered Version)DR7 -0.30 dB -9.26 dB 4:12 15-Dawn Begins to Creep (2015 Remastered Version)DR7 -0.30 dB -9.86 dB 4:03 16-Rising Tide (2015 Remastered Version)DR7 -0.30 dB -10.39 dB 3:03 17-Always Wishing You Were Somewhere Else - 2004 Kenotic Sessions (Alternate Mix) [2015 Remastered Version]DR8 -0.30 dB -10.08 dB 3:45 18-Turning to Stone (2004 Kenotic Sessions)DR7 -0.30 dB -10.14 dB 3:36 19-Last Horizon (2004 Kenotic Sessions)DR7 -0.30 dB -9.39 dB 2:41 20-Departure (2004 Kenotic Sessions)DR6 -0.30 dB -7.77 dB 2:48 21-Frailty (2004 Kenotic Sessions)DR8 -0.30 dB -9.77 dB 3:16 22-Storm Sets In (2004 Kenotic Sessions)DR7 -0.30 dB -9.00 dB 6:09 23-Underneath the Skin (2004 Kenotic Sessions)--------------------------------------------------------------------------------
Number of tracks: 23Official DR value: DR7
Samplerate: 44100 HzChannels: 2Bits per sample: 24Bitrate: 875 kbpsCodec: FLAC================================================================================

Скриншот спектра частот

2005 - The Sleepover Series, Volume One [Remastered 2014] (00:59:17)

Издатель(лейбл): Hammock
Источник (релизер): Hammock shop
Треклист:
01. Moon Through the Branches [4:15]
02. Empty Page / Blue Sky [4:14]
03. Dropping Off [15:07]
04. Just Before Breathing [5:55]
05. Still Point [24:31]
06. No Stopping the Sea [5:14]
Формат файла: FLAC (*.flac)
Тип рипа: tracks
Разрядность: 24/44.1
Формат файла: PCM
Количество каналов: 2.0

Динамический диапазон

foobar2000 1.3.12 / Dynamic Range Meter 1.1.1log date: 2016-10-10 18:05:58
--------------------------------------------------------------------------------Analyzed: Hammock / The Sleepover Series, Volume One--------------------------------------------------------------------------------
DR Peak RMS Duration Track--------------------------------------------------------------------------------DR7 -0.59 dB -9.80 dB 4:15 01-Moon Through the BranchesDR9 -0.63 dB -11.84 dB 4:14 02-Empty Page / Blue SkyDR7 -0.62 dB -10.92 dB 15:07 03-Dropping OffDR8 -0.63 dB -10.44 dB 5:55 04-Just Before BreathingDR9 -0.61 dB -11.93 dB 24:31 05-Still PointDR8 -0.53 dB -11.26 dB 5:14 06-No Stopping the Sea--------------------------------------------------------------------------------
Number of tracks: 6Official DR value: DR8
Samplerate: 44100 HzChannels: 2Bits per sample: 24Bitrate: 646 kbpsCodec: FLAC================================================================================

Скриншот спектра частот

2006 - Raising Your Voice...Trying to Stop an Echo (Deluxe Edition 2016) [Remastered] (01:54:13)

Издатель(лейбл): Hammock
Источник (релизер): Hammock shop
Треклист:
01. I Can Almost See You (2016 Remaster) [4:15]
02. Raising Your Voice... Trying to Stop an Echo (2016 Remaster) [5:04]
03. Losing You to You (2016 Remaster) [6:24]
04. When the Sky Pours Down Like a Fountain (2016 Remaster) [5:27]
05. The House Where We Grew Up (2016 Remaster) [4:21]
06. God Send Us a Signal (2016 Remaster) [4:38]
07. Clouds Cover the Stars (2016 Remaster) [1:34]
08. Floating Away in Every Direction (2016 Remaster) [6:45]
09. Take a Drink From My Hands (2016 Remaster) [5:02]
10. Startle the Heavens (2016 Remaster) [4:31]
11. More Dead Than Alive (Get Away from the Medicine) [2016 Remaster] [1:20]
12. Disappear Like the Morning... (2016 Remaster) [4:51]
13. ...Like Starlight into Day (2016 Remaster) [4:01]
14. Shipwrecked (Flat on Your Back) [2016 Remaster] [4:02]
15. Chorus of Trees (2016 Remaster) [2:16]
16. Passing Away (2016 Remaster) [5:10]
17. Will You Ever Love Yourself? (2016 Remaster) [5:46]
18. Sparkle and Fade (2016 Remaster) [1:14]
19. Skye Ba - 2006 Sessions (Bonus Track) [3:56]
20. Sora - 2006 Sessions (Bonus Track) [5:49]
21. Weightless - 2006 Sessions (Bonus Track) [4:02]
22. Alys - 2006 Sessions (Bonus Track) [4:27]
23. Shift - 2006 Sessions (Bonus Track) [5:47]
24. Harmonica - 2006 Sessions (Bonus Track) [4:05]
25. RMFS - 2006 Sessions (Bonus Track) [4:18]
26. Birds Flying in Sequence, Pt. 2 - 2006 Sessions (Bonus Track) [5:06]
Формат файла: FLAC (*.flac)
Тип рипа: tracks
Разрядность: 24/44.1
Формат файла: PCM
Количество каналов: 2.0

Динамический диапазон

foobar2000 1.3.12 / Dynamic Range Meter 1.1.1log date: 2016-10-09 23:55:17
--------------------------------------------------------------------------------Analyzed: Hammock / Raising Your Voice...Trying to Stop an Echo (Deluxe Edition)--------------------------------------------------------------------------------
DR Peak RMS Duration Track--------------------------------------------------------------------------------DR7 -0.20 dB -8.61 dB 4:15 01-I Can Almost See You (2016 Remaster)DR6 -0.20 dB -7.93 dB 5:04 02-Raising Your Voice... Trying to Stop an Echo (2016 Remaster)DR6 -0.20 dB -10.04 dB 6:24 03-Losing You to You (2016 Remaster)DR8 -0.20 dB -10.59 dB 5:27 04-When the Sky Pours Down Like a Fountain (2016 Remaster)DR8 -0.20 dB -10.54 dB 4:21 05-The House Where We Grew Up (2016 Remaster)DR8 -0.20 dB -11.08 dB 4:38 06-God Send Us a Signal (2016 Remaster)DR9 -0.20 dB -12.19 dB 1:34 07-Clouds Cover the Stars (2016 Remaster)DR7 -0.20 dB -10.03 dB 6:45 08-Floating Away in Every Direction (2016 Remaster)DR7 -0.20 dB -10.69 dB 5:02 09-Take a Drink From My Hands (2016 Remaster)DR9 -0.20 dB -11.91 dB 4:31 10-Startle the Heavens (2016 Remaster)DR9 -0.20 dB -12.33 dB 1:20 11-More Dead Than Alive (Get Away from the Medicine) [2016 Remaster]DR7 -0.20 dB -9.61 dB 4:51 12-Disappear Like the Morning... (2016 Remaster)DR7 -0.20 dB -9.55 dB 4:01 13-...Like Starlight into Day (2016 Remaster)DR7 -0.20 dB -9.27 dB 4:02 14-Shipwrecked (Flat on Your Back) [2016 Remaster]DR8 -0.20 dB -10.48 dB 2:16 15-Chorus of Trees (2016 Remaster)DR8 -0.20 dB -10.17 dB 5:10 16-Passing Away (2016 Remaster)DR7 -0.20 dB -9.97 dB 5:46 17-Will You Ever Love Yourself? (2016 Remaster)DR8 -0.20 dB -11.50 dB 1:14 18-Sparkle and Fade (2016 Remaster)DR6 -0.20 dB -8.24 dB 3:56 19-Skye Ba - 2006 Sessions (Bonus Track)DR7 -0.20 dB -10.16 dB 5:49 20-Sora - 2006 Sessions (Bonus Track)DR9 -0.20 dB -11.38 dB 4:02 21-Weightless - 2006 Sessions (Bonus Track)DR7 -0.20 dB -9.76 dB 4:27 22-Alys - 2006 Sessions (Bonus Track)DR6 -0.20 dB -9.10 dB 5:47 23-Shift - 2006 Sessions (Bonus Track)DR6 -0.20 dB -10.01 dB 4:05 24-Harmonica - 2006 Sessions (Bonus Track)DR5 -0.20 dB -6.35 dB 4:18 25-RMFS - 2006 Sessions (Bonus Track)DR8 -0.20 dB -9.83 dB 5:06 26-Birds Flying in Sequence, Pt. 2 - 2006 Sessions (Bonus Track)--------------------------------------------------------------------------------
Number of tracks: 26Official DR value: DR7
Samplerate: 44100 HzChannels: 2Bits per sample: 24Bitrate: 1414 kbpsCodec: FLAC================================================================================

Спектрограммы

2013 - Oblivion Hymns (01:16:35)

Издатель(лейбл): Hammock
Источник (релизер): Hammock shop
Треклист:
01. My Mind Was a Fog… My Heart Became a Bomb [5:23]
02. Then the Quiet Explosion [6:43]
03. Turning Into Tiny Particles… Floating Through Empty Space [4:02]
04. Like a Valley With No Echo [8:10]
05. Holding Your Absence [5:42]
06. Shored Against the Ruins… Drowning In Ten Directions [3:43]
07. I Could Hear the Water at the Edge of All Things [5:41]
08. In the Middle of This Nowhere [5:33]
09. Hope Becomes a Loss [8:45]
10. Tres Domine [3:08]
11. Sleep (Bonus Track) [6:32]
12. Cathedral (Bonus Track) [6:18]
13. Hiraeth (Bonus Track) [6:53]
Формат файла: FLAC (*.flac)
Тип рипа: tracks
Разрядность: 16/44.1 24/48
Формат файла: PCM
Количество каналов: 2.0

Динамический диапазон

foobar2000 1.3.12 / Dynamic Range Meter 1.1.1log date: 2016-10-09 23:08:11
--------------------------------------------------------------------------------Analyzed: Hammock / Oblivion Hymns--------------------------------------------------------------------------------
DR Peak RMS Duration Track--------------------------------------------------------------------------------DR7 -0.20 dB -9.50 dB 5:23 01-My Mind Was a Fog… My Heart Became a BombDR7 -0.30 dB -10.81 dB 6:43 02-Then the Quiet ExplosionDR7 -0.30 dB -9.57 dB 4:02 03-Turning Into Tiny Particles… Floating Through Empty SpaceDR8 -0.30 dB -10.05 dB 8:10 04-Like a Valley With No EchoDR7 -0.33 dB -8.90 dB 5:42 05-Holding Your AbsenceDR8 -0.30 dB -9.72 dB 3:43 06-Shored Against the Ruins… Drowning In Ten DirectionsDR7 -0.30 dB -9.29 dB 5:41 07-I Could Hear the Water at the Edge of All ThingsDR7 -0.30 dB -9.11 dB 5:33 08-In the Middle of This NowhereDR8 -0.30 dB -11.13 dB 8:45 09-Hope Becomes a LossDR7 -0.30 dB -10.36 dB 3:08 10-Tres DominéDR8 -0.29 dB -9.68 dB 6:32 11-Sleep (Bonus Track)DR7 -0.41 dB -11.03 dB 6:18 12-Cathedral (Bonus Track)DR7 -0.33 dB -9.18 dB 6:53 13-Hiraeth (Bonus Track)--------------------------------------------------------------------------------
Number of tracks: 13Official DR value: DR7
Samplerate: 44100 HzChannels: 2Bits per sample: 24Bitrate: 1501 kbpsCodec: FLAC================================================================================

Спектрограммы

2014 - The Sleepover Series, Volume Two (01:49:21)

Издатель(лейбл): Hammock
Источник (релизер): Hammock shop
Треклист:
01. Locating Silence [3:55]
02. No Trace... No Shadow [6:25]
03. A Secret Hiding in the Open [7:54]
04. Belonging / Becoming [9:36]
05. Original Light [8:38]
06. A Sunlit Absence [11:05]
07. Ausculta [5:33]
08. The Empty Valley Received the Clouds... The Cold Stream Cleanses the Moon [10:02]
09. From Silence into Silence [5:24]
10. The Lonely Now [30:19]
11. Before We Were Born (bonus track) [10:30]
Формат файла: FLAC (*.flac)
Тип рипа: tracks
Разрядность: 24/44.1
Формат файла: PCM
Количество каналов: 2.0

Динамический диапазон

foobar2000 1.3.12 / Dynamic Range Meter 1.1.1log date: 2016-10-10 18:07:22
--------------------------------------------------------------------------------Analyzed: Hammock / The Sleepover Series, Volume Two--------------------------------------------------------------------------------
DR Peak RMS Duration Track--------------------------------------------------------------------------------DR10 -0.31 dB -14.27 dB 3:55 01-Locating SilenceDR10 -0.31 dB -13.61 dB 6:25 02-No Trace... No ShadowDR9 -0.41 dB -11.69 dB 7:54 03-A Secret Hiding in the OpenDR9 -0.71 dB -11.49 dB 9:36 04-Belonging / BecomingDR9 0.00 dB -11.70 dB 8:38 05-Original LightDR10 -0.31 dB -11.10 dB 11:05 06-A Sunlit AbsenceDR9 -0.37 dB -12.43 dB 5:33 07-AuscultaDR10 -0.83 dB -12.85 dB 10:02 08-The Empty Valley Received the Clouds... The Cold Stream Cleanses the MoonDR10 -0.29 dB -13.52 dB 5:24 09-From Silence into SilenceDR10 -0.35 dB -12.81 dB 30:19 10-The Lonely NowDR7 -0.23 dB -10.05 dB 10:30 11-Before We Were Born (bonus track)--------------------------------------------------------------------------------
Number of tracks: 11Official DR value: DR9
Samplerate: 44100 HzChannels: 2Bits per sample: 24Bitrate: 1030 kbpsCodec: FLAC================================================================================

Скриншот спектра частот

2016 - Everything and Nothing (01:16:35)

Издатель(лейбл): Hammock
Источник (релизер): Hammock shop
Треклист:
01. Turn Away and Return [5:13]
02. Clarity [6:23]
03. Glassy Blue [5:18]
04. Dissonance [3:17]
05. Marathon Boy [5:04]
06. We Could Have Been Beautiful Again [6:39]
07. Everything and Nothing [3:58]
08. She Was in the Field Counting Stars [4:50]
09. Burning Down the Fascination [3:34]
10. Wasted We Stared at the Ceiling [4:29]
11. Reverence [5:00]
12. I Will Become the Ground You Walk On [3:18]
13. We Were So Young [5:35]
14. You Walk Around... Shining Like the Sun [6:07]
15. Unspoken [4:32]
16. Before You Float Away into Nothing [3:16]
17. There Is Only This (Bonus Track) [5:07]
18. Lights Will Draw You Back (Bonus Track) [4:18]
19. Devil Wind (Bonus Track) [3:41]
20. Start Over Again (Bonus Track) [4:42]
Формат файла: FLAC (*.flac)
Тип рипа: tracks
Разрядность: 24/44.1
Формат файла: PCM
Количество каналов: 2.0

Динамический диапазон

foobar2000 1.3.12 / Dynamic Range Meter 1.1.1log date: 2016-10-09 23:09:12
--------------------------------------------------------------------------------Analyzed: Hammock / Everything and Nothing--------------------------------------------------------------------------------
DR Peak RMS Duration Track--------------------------------------------------------------------------------DR9 -0.40 dB -14.00 dB 5:13 01-Turn Away and ReturnDR7 -0.32 dB -8.92 dB 6:23 02-ClarityDR6 -0.30 dB -9.16 dB 5:18 03-Glassy BlueDR5 -0.24 dB -7.09 dB 3:17 04-DissonanceDR10 -0.72 dB -13.75 dB 5:04 05-Marathon BoyDR6 -0.18 dB -8.83 dB 6:39 06-We Could Have Been Beautiful AgainDR6 -0.27 dB -8.48 dB 3:58 07-Everything and NothingDR6 -0.36 dB -10.89 dB 4:50 08-She Was in the Field Counting StarsDR6 -0.26 dB -7.64 dB 3:34 09-Burning Down the FascinationDR6 -0.33 dB -9.86 dB 4:29 10-Wasted We Stared at the CeilingDR6 -0.34 dB -10.12 dB 5:00 11-ReverenceDR7 0.00 dB -11.55 dB 3:18 12-I Will Become the Ground You Walk OnDR6 -0.20 dB -8.55 dB 5:35 13-We Were So YoungDR7 -0.02 dB -8.83 dB 6:07 14-You Walk Around... Shining Like the SunDR7 -0.01 dB -9.59 dB 4:32 15-UnspokenDR6 0.00 dB -9.13 dB 3:16 16-Before You Float Away into NothingDR7 -0.33 dB -11.46 dB 5:07 17-There Is Only This (Bonus Track)DR6 -0.33 dB -8.44 dB 4:18 18-Lights Will Draw You Back (Bonus Track)DR6 0.00 dB -8.54 dB 3:41 19-Devil Wind (Bonus Track)DR6 -0.23 dB -6.89 dB 4:42 20-Start Over Again (Bonus Track)--------------------------------------------------------------------------------
Number of tracks: 20Official DR value: DR7
Samplerate: 44100 HzChannels: 2Bits per sample: 24Bitrate: 1635 kbpsCodec: FLAC================================================================================

Спектрограммы

2017 - Mysterium (00:58:07)

Издатель(лейбл): Hammock
Источник (релизер): Hammock shop
Треклист:
01. Now and Not Yet [6:18]
02. Mysterium [7:12]
03. When the Body Breaks [4:23]
04. Things of Beauty Burn [4:41]
05. I Would Give My Breath Away [3:11]
06. Remember Our Bewildered Son [6:04]
07. Dust Swirling into Your Shape [3:48]
08. Numinous [5:20]
09. For My Sister [6:25]
10. Elegy [5:05]
11. This Is Not Enough (Epilogue) [5:40]
Формат файла: FLAC (*.flac)
Тип рипа: tracks
Разрядность: 24/44.1
Формат файла: PCM
Количество каналов: 2.0

Динамический диапазон

oobar2000 1.3.16 / Dynamic Range Meter 1.1.1log date: 2017-08-25 16:37:36
--------------------------------------------------------------------------------Analyzed: Hammock / Mysterium--------------------------------------------------------------------------------
DR Peak RMS Duration Track--------------------------------------------------------------------------------DR10 -0.13 dB -15.78 dB 6:18 01-Now and Not YetDR9 0.00 dB -14.66 dB 7:12 02-MysteriumDR13 -0.03 dB -17.74 dB 4:23 03-When the Body BreaksDR10 -0.30 dB -17.37 dB 4:41 04-Things of Beauty BurnDR9 -0.64 dB -13.12 dB 3:11 05-I Would Give My Breath AwayDR10 -0.82 dB -15.68 dB 6:04 06-Remember Our Bewildered SonDR9 -0.45 dB -14.02 dB 3:48 07-Dust Swirling into Your ShapeDR10 -0.93 dB -15.85 dB 5:20 08-NuminousDR11 -1.10 dB -16.27 dB 6:25 09-For My SisterDR10 -0.18 dB -14.88 dB 5:05 10-ElegyDR9 0.00 dB -11.82 dB 5:40 11-This Is Not Enough (Epilogue)--------------------------------------------------------------------------------
Number of tracks: 11Official DR value: DR10
Samplerate: 44100 HzChannels: 2Bits per sample: 24Bitrate: 1434 kbpsCodec: FLAC================================================================================

Скриншот спектра частот

2017 - Columbus (Original Motion Picture Soundtrack) (00:45:30)

Издатель(лейбл): Hammock
Источник (релизер): Hammock shop
Треклист:
01. Pei [3:53]
02. Meier [2:20]
03. Venturi [2:22]
04. Eliel [4:19]
05. Eero [2:23]
06. SOM [3:00]
07. Berke [1:38]
08. Polshek [1:47]
09. Warnecke [2:39]
10. Birkerts [1:14]
11. Weese [4:49]
12. Goldsmith [2:22]
13. Roche [1:39]
14. Valkenburgh [4:13]
15. Jimenez [2:30]
16. Saitowitz [4:20]
Формат файла: FLAC (*.flac)
Тип рипа: tracks
Разрядность: 24/48
Формат файла: PCM
Количество каналов: 2.0

Динамический диапазон

foobar2000 1.3.16 / Dynamic Range Meter 1.1.1log date: 2017-11-04 11:20:14
--------------------------------------------------------------------------------Analyzed: Hammock / Columbus (Original Motion Picture Soundtrack)--------------------------------------------------------------------------------
DR Peak RMS Duration Track--------------------------------------------------------------------------------DR10 -0.20 dB -14.75 dB 3:53 01-PeiDR10 -0.20 dB -13.42 dB 2:20 02-MeierDR7 -0.20 dB -10.43 dB 2:22 03-VenturiDR10 -0.20 dB -13.78 dB 4:19 04-ElielDR10 -0.32 dB -14.30 dB 2:23 05-EeroDR10 -0.20 dB -12.08 dB 3:00 06-SOMDR9 -0.20 dB -11.77 dB 1:38 07-BerkeDR8 -0.20 dB -12.90 dB 1:47 08-PolshekDR10 -0.20 dB -14.48 dB 2:39 09-WarneckeDR10 -0.20 dB -14.98 dB 1:14 10-BirkertsDR11 -0.20 dB -14.13 dB 4:49 11-WeeseDR9 -0.20 dB -11.34 dB 2:22 12-GoldsmithDR9 -0.50 dB -13.23 dB 1:39 13-RocheDR9 -0.20 dB -14.94 dB 4:13 14-ValkenburghDR9 -0.20 dB -12.12 dB 2:30 15-JimenezDR7 -0.20 dB -11.67 dB 4:20 16-Saitowitz--------------------------------------------------------------------------------
Number of tracks: 16Official DR value: DR9
Samplerate: 48000 HzChannels: 2Bits per sample: 24Bitrate: 1144 kbpsCodec: FLAC================================================================================

Скриншот спектра частот

2018 - Universalis (55:35)

Издатель(лейбл): Hammock
Источник (релизер): Hammock shop
Треклист:
01. Mouth to Dust... Waiting [4:26]
02. Scattering Light [4:47]
03. Universalis [5:28]
04. Cliffside [5:52]
05. Always Before Your Eyes [4:26]
06. We Are More Than We Are [4:34]
07. Tether of Yearning [4:48]
08. Clothed with Sky [2:46]
09. Thirst [6:27]
10. We Watched You Disappear [5:54]
11. Tremendum [6:07]
Формат файла: FLAC (*.flac)
Тип рипа: tracks
Разрядность: 24/44.1
Формат файла: PCM
Количество каналов: 2.0

Динамический диапазон

foobar2000 1.4 / Dynamic Range Meter 1.1.1log date: 2018-12-07 08:36:13
--------------------------------------------------------------------------------Analyzed: Hammock / Universalis--------------------------------------------------------------------------------
DR Peak RMS Duration Track--------------------------------------------------------------------------------DR9 -0.10 dB -13.67 dB 4:26 01-Mouth to Dust... WaitingDR10 -0.10 dB -13.46 dB 4:47 02-Scattering LightDR8 -0.09 dB -11.52 dB 5:28 03-UniversalisDR8 -0.09 dB -10.86 dB 5:52 04-CliffsideDR9 -0.10 dB -13.13 dB 4:26 05-Always Before Your EyesDR6 -0.08 dB -8.96 dB 4:34 06-We Are More Than We AreDR9 -0.10 dB -13.12 dB 4:48 07-Tether of YearningDR10 -0.10 dB -13.73 dB 2:46 08-Clothed with SkyDR9 -0.08 dB -11.73 dB 6:27 09-ThirstDR8 -0.10 dB -13.47 dB 5:54 10-We Watched You DisappearDR10 -0.10 dB -13.51 dB 6:07 11-Tremendum--------------------------------------------------------------------------------
Number of tracks: 11Official DR value: DR9
Samplerate: 44100 HzChannels: 2Bits per sample: 24Bitrate: 1311 kbpsCodec: FLAC================================================================================

Спектрограммы

Ep's & singles2015 - 09.28.15 (Blood Moon) [single] (00:08:43)

Издатель(лейбл): Hammock
Источник (релизер): Hammock shop
Треклист:
01. 09.28.15 (Blood Moon) [8:43]
Формат файла: FLAC (*.flac)
Тип рипа: tracks
Разрядность: 24/44.1
Формат файла: PCM
Количество каналов: 2.0

Динамический диапазон

foobar2000 1.3.12 / Dynamic Range Meter 1.1.1log date: 2016-10-09 23:09:37
--------------------------------------------------------------------------------Statistics for: 01-09.28.15 (Blood Moon)Number of samples: 23045807Duration: 8:43--------------------------------------------------------------------------------
Left Right
Peak Value: -3.28 dB --- -1.96 dBAvg RMS: -18.61 dB --- -16.45 dBDR channel: 10.48 dB --- 9.12 dB--------------------------------------------------------------------------------
Official DR Value: DR10
Samplerate: 44100 HzChannels: 2Bits per sample: 24Bitrate: 1010 kbpsCodec: FLAC================================================================================

Скриншот спектра частот

2016 - Repeat - Texture [EP] (00:19:07)

Издатель(лейбл): Hammock
Источник (релизер): Hammock shop
*digital download of an exclusive ambient EP, "Repeat / Texture" sent by e-mail.
Треклист:
01. Union [3:45]
02. Groundless [5:39]
03. Reconciliation [4:15]
04. Melt [5:29]
Формат файла: FLAC (*.flac)
Тип рипа: tracks
Разрядность: 24/44.1
Формат файла: PCM
Количество каналов: 2.0

Динамический диапазон

foobar2000 1.3.12 / Dynamic Range Meter 1.1.1log date: 2016-10-09 23:09:49
--------------------------------------------------------------------------------Analyzed: Hammock / Repeat / Texture--------------------------------------------------------------------------------
DR Peak RMS Duration Track--------------------------------------------------------------------------------DR6 0.00 dB -8.87 dB 3:45 01-UnionDR6 0.00 dB -9.01 dB 5:39 02-GroundlessDR6 0.00 dB -8.57 dB 4:15 03-ReconciliationDR7 0.00 dB -9.14 dB 5:29 04-Melt--------------------------------------------------------------------------------
Number of tracks: 4Official DR value: DR6
Samplerate: 44100 HzChannels: 2Bits per sample: 24Bitrate: 1375 kbpsCodec: FLAC================================================================================

Скриншот спектра частот

2018 - Floating World / Snowburn (08:40)

Издатель(лейбл): Hammock
Источник (релизер): Hammock shop
Треклист:
01. Floating World [3:38]
02. Snowburn [5:02]
Формат файла: FLAC (*.flac)
Тип рипа: tracks
Разрядность: 24/44.1
Формат файла: PCM
Количество каналов: 2.0

Динамический диапазон

foobar2000 1.4 / Dynamic Range Meter 1.1.1log date: 2018-12-07 08:24:40
--------------------------------------------------------------------------------Analyzed: Hammock / Floating World / Snowburn--------------------------------------------------------------------------------
DR Peak RMS Duration Track--------------------------------------------------------------------------------DR7 -0.20 dB -9.92 dB 3:38 01-Floating WorldDR6 -0.06 dB -8.34 dB 5:02 02-Snowburn--------------------------------------------------------------------------------
Number of tracks: 2Official DR value: DR6
Samplerate: 48000 HzChannels: 2Bits per sample: 24Bitrate: 1605 kbpsCodec: FLAC================================================================================

Скриншот спектра частот

Внимание! Для получения полной дискографии необходимо скачать также данную раздачу. Обе попадают в одну и ту же папку.


[chi5o.com]_t_5295274.torrent
Торрент: Зарегистрирован ·  [ 2019-01-07 13:28 ] ·  5679e8f6fe750f64ba5e716a5aef5c7bc70bb7f5

160 KB

Статус: проверено
Скачан: 0 раз
Размер: 6.81 GB
Оценка: 
(Голосов: 0)
Сказали спасибо: 0  Спасибо
Похожие темы
[Профиль]    [ЛС]
Показать сообщения:    
Ответить на тему

Текущее время: Сегодня 17:19

Часовой пояс: GMT + 7



Вы не можете начинать темы
Вы не можете отвечать на сообщения
Вы не можете редактировать свои сообщения
Вы не можете удалять свои сообщения
Вы не можете голосовать в опросах
Вы не можете прикреплять файлы к сообщениям
Вы можете скачивать файлы


2X Fiat Doblo Fiorino Punto Palio Bravo sunvisor mount bracket sun visor clips | Treatanaut | Kakumeiki Valvrave Season 2 BD Subtitle Indonesia