[TR24][OF] Master Margherita - Border 50 - 2018 (Psychedelic | psychill | Ambient)

Ответить на тему
Статистика раздачи [Обновить пиров]
Размер:  699 MB   |    Зарегистрирован:  14 дней   |    Скачан:  0 раз

Полного источника не было: Никогда

 
   
 
 
 
Автор Сообщение

chi5o.com

Создавать темы 07-Янв-2019 14:01

[Цитировать]


Master Margherita

Border 50



• Формат файла записи | Источник записи: [TR24][OF]
• Наличие водяных знаков: Нет
• Год издания релиза: 2018
• Жанр: Psychedelic | psychill | Ambient
• Продолжительность: 01:17:09
• Источник, релизер: NT plosha
• WEB bandcamp
• Формат файла: FLAC (*.flac)
• Тип рипа: tracks
• Разрядность: 24/44,1
• Формат файла: WAV (flac.ape.wv)
• Количество каналов: 2.0
• Наличие сканов: front

01 - Eight Degrees South (Ultimae Dub) (00:05:03)
02 - Lowland Areas (First Light Mix) (00:08:20)
03 - Shruti One (Ambient Mix) (00:07:46)
04 - Geophilous (Arborescent Mix) (00:10:26)
05 - Kivalina (Border 50 Mix) (00:09:20)
06 - Alternate Pathway (Alternative 1) (00:05:33)
07 - Alternate Pathway (Alternative 2) (00:07:25)
08 - Cosmogram (Ambient Mix) (00:07:42)
09 - Border 50 (Ultimae Dub) (00:10:06)
10 - Extending Downwards (Border 50 Mix) (00:05:25)
-

• Замер динамического диапазона •

foobar2000 1.3.17 / Замер динамического диапазона (DR) 1.1.1Дата отчёта: 2018-12-18 19:56:16
--------------------------------------------------------------------------------Анализ: Master Margherita / Border 50--------------------------------------------------------------------------------
DR Пики RMS Продолжительность трека--------------------------------------------------------------------------------DR9 -0.31 дБ -11.65 дБ 5:03 01-Eight Degrees South (Ultimae Dub)DR7 -0.31 дБ -10.46 дБ 8:20 02-Lowland Areas (First Light Mix)DR7 -0.31 дБ -9.61 дБ 7:47 03-Shruti One (Ambient Mix)DR8 -0.31 дБ -9.69 дБ 10:26 04-Geophilous (Arborescent Mix)DR8 -0.31 дБ -12.21 дБ 9:21 05-Kivalina (Border 50 Mix)DR8 -0.31 дБ -9.58 дБ 5:33 06-Alternate Pathway (Alternative 1)DR8 -0.31 дБ -9.90 дБ 7:26 07-Alternate Pathway (Alternative 2)DR8 -0.31 дБ -10.61 дБ 7:42 08-Cosmogram (Ambient Mix)DR8 -0.31 дБ -9.10 дБ 10:06 09-Border 50 (Ultimae Dub)DR7 -0.31 дБ -8.68 дБ 5:25 10-Extending Downwards (Border 50 Mix)--------------------------------------------------------------------------------
Количество треков: 10Реальные значения DR: DR8
Частота: 44100 ГцКаналов: 2Разрядность: 24Битрейт: 1262 кбит/сКодек: FLAC================================================================================
-


[chi5o.com]_t_5661639.torrent
Торрент: Зарегистрирован ·  [ 2019-01-07 13:28 ] ·  9efe15be86435d28ac3750d53c7c080374daaa8e

15 KB

Статус: проверено
Скачан: 0 раз
Размер: 699 MB
Оценка: 
(Голосов: 0)
Сказали спасибо: 0  Спасибо
Похожие темы
[Профиль]    [ЛС]
Показать сообщения:    
Ответить на тему

Текущее время: Сегодня 16:50

Часовой пояс: GMT + 7



Вы не можете начинать темы
Вы не можете отвечать на сообщения
Вы не можете редактировать свои сообщения
Вы не можете удалять свои сообщения
Вы не можете голосовать в опросах
Вы не можете прикреплять файлы к сообщениям
Вы можете скачивать файлы


smart watch | Capital Spain - Enero 2019 | Science Fiction