[TR24][OF] Tropo - Mira - 2018 (Electronic, Deep House,Downtempo)

Ответить на тему
Статистика раздачи [Обновить пиров]
Размер:  889 MB   |    Зарегистрирован:  14 дней   |    Скачан:  0 раз

Полного источника не было: Никогда

 
   
 
 
 
Автор Сообщение

chi5o.com

Создавать темы 07-Янв-2019 14:00

[Цитировать]

Tropo / Mira
Формат файла записи/Источник записи: [TR24][OF]
Наличие водяных знаков: Нет
Год издания/переиздания диска: 2018
Жанр: Electronic, Deep House,Downtempo
Издатель (лейбл): Jumpsuit Records
Продолжительность: 01:21
Наличие сканов в содержимом раздачи: Нет
Треклист:
01.Summit Bloom (09:07)
02.Return of the Indigo Sparrow (05:58)
03.Mapaches (04:36)
04.Aquarius Rising (06:18)
05.Malka (05:18)
06.Mira (07:37)
07.Hermosa Tormenta (05:44)
08.Andromeda (05:55)
09.Canopy (06:23)
10.Medicine Code (06:54)
11.Sierra Moon (07:53)
12.Return of the Heron (09:17)
Формат файла: FLAC (*.flac)
Тип рипа: tracks
Разрядность: 24/44,1
Формат файла: Flac
Количество каналов: 2.0

Лог проверки качества

foobar2000 1.3.9 / Dynamic Range Meter 1.1.1log date: 2018-12-20 16:09:08
--------------------------------------------------------------------------------Analyzed: Tropo / Mira--------------------------------------------------------------------------------
DR Peak RMS Duration Track--------------------------------------------------------------------------------DR8 -0.20 dB -9.51 dB 9:07 01-Summit BloomDR9 -0.20 dB -12.27 dB 5:59 02-Return of the Indigo SparrowDR8 -0.20 dB -9.85 dB 4:36 03-MapachesDR7 -0.20 dB -9.27 dB 6:19 04-Aquarius RisingDR9 -0.20 dB -11.27 dB 5:18 05-MalkaDR9 -0.20 dB -11.65 dB 7:37 06-MiraDR8 -0.20 dB -10.98 dB 5:44 07-Hermona TormentaDR7 -0.20 dB -9.02 dB 5:56 08-AndromedaDR8 -0.20 dB -9.74 dB 6:23 09-CanopyDR9 -0.20 dB -11.98 dB 6:54 10-Medicine CodeDR8 -0.20 dB -10.72 dB 7:54 11-Sierra MoonDR8 -0.20 dB -9.87 dB 9:18 12-Return of the Heron--------------------------------------------------------------------------------
Number of tracks: 12Official DR value: DR8
Samplerate: 44100 HzChannels: 2Bits per sample: 24Bitrate: 1500 kbpsCodec: FLAC================================================================================
Источник (релизер):bandcamp


[chi5o.com]_t_5662463.torrent
Торрент: Зарегистрирован ·  [ 2019-01-07 13:28 ] ·  159a9a228ff731055af581f9e57c8af0c7b1521d

36 KB

Статус: проверено
Скачан: 0 раз
Размер: 889 MB
Оценка: 
(Голосов: 0)
Сказали спасибо: 0  Спасибо
Похожие темы
[Профиль]    [ЛС]
Показать сообщения:    
Ответить на тему

Текущее время: Сегодня 17:28

Часовой пояс: GMT + 7



Вы не можете начинать темы
Вы не можете отвечать на сообщения
Вы не можете редактировать свои сообщения
Вы не можете удалять свои сообщения
Вы не можете голосовать в опросах
Вы не можете прикреплять файлы к сообщениям
Вы можете скачивать файлы


View Site Leaders | Cars speelgoed | Godzilla Dublado Online Assistir Godzilla Dublado Online HD 720p Joe Brody (Bryan Cranston) criou o filho sozinho após a morte da esposa (Juliette Binoche) em um acidente na usina nuclear em que ambos trabalhavam, no Japão. Ele nunca aceitou a catástrofe e quinze anos depois continua remoendo o acontecido, tentando encontrar alguma explicação. Ford Brody (Aaron Taylor-Johnson), agora adulto, é soldado do exército americano ...