[TR24][OF] Shamanic Technology - Коллекция 2008-2018 (Downtempo, Psychill, IDM, Dubstep, Psystep, Glitch-Hop, Neuro-Hop, Drum\'n\'bass)

Ответить на тему
Статистика раздачи [Обновить пиров]
Размер:  4.59 GB   |    Зарегистрирован:  14 дней   |    Скачан:  0 раз

Полного источника не было: Никогда

 
   
 
 
 
Автор Сообщение

chi5o.com

Создавать темы 07-Янв-2019 14:00

[Цитировать]

Shamanic Technology- -Формат файла записи/Источник записи: [TR24][OF]
Наличие водяных знаков: Нет
Годы издания: 2008-2018
Жанр: Downtempo, Psychill, IDM, Dubstep, Psystep, Glitch-Hop, Neuro-Hop, Drum'n'bass
Страна: UK • Продолжительность: 10:51:19
Сканы в содержимом раздачи: Digital
-

Chris Hare (Shamanic Technology)

Christian James Hare - Bournemouth (UK) based producer.
Shamanic Technology is an ever-evolving exploration in sound experimentation. A collision of dynamic sound design, beat science and hypnotic melody.
Communication in contemporary bass culture. Taking elements from the world of Neuro, Glitch, Breakbeat and Hip Hop; this is bassmusic that crosses genres and spans multiple tempos, where seamless elements combine across a backdrop of old-skool IDM nostalgia, dark basslines and glitch innovation.

Albums(2008) Shamanic Technology - Doorways

-Источник: Torrentc
Жанр: Downtempo, Psychill, IDM
Дата релиза: 27.10.2008
Продолжительность: 00:59:26
Треклист:
01. Shamanic Technology - Rites Of Passage 00:45
02. Shamanic Technology - Shamanic Technology (Floating in Ayahuasca) 04:39
03. Shamanic Technology - Ode To The Machine 05:58
04. Shamanic Technology - Strange Glass Feeling 04:16
05. Shamanic Technology - Thought Bubble Experiment 05:26
06. Shamanic Technology - Phonic Sky 01:38
07. Shamanic Technology - Electronic Therapy 05:31
08. Shamanic Technology - My Shadow Casting 04:40
09. Shamanic Technology - Xtractions 04:27
10. Shamanic Technology - MiRrOrS 05:13
11. Shamanic Technology - Moments Of Reflection 01:29
12. Shamanic Technology - Pathseeker 05:31
13. Shamanic Technology - Toy Vision 04:38
14. Shamanic Technology - Nostalgia 05:13
Формат файла: FLAC (*.flac)
Тип рипа: tracks
Разрядность: 16/44.1
Формат файла: PCM
Количество каналов: 2.0

Замер динамического диапазона

foobar2000 1.3.9 / Замер динамического диапазона (DR) 1.1.1Дата отчёта: 2019-01-06 15:07:36
--------------------------------------------------------------------------------Анализ: Shamanic Technology / Doorways--------------------------------------------------------------------------------
DR Пики RMS Продолжительность трека--------------------------------------------------------------------------------DR12 -5.54 дБ -22.18 дБ 0:45 01-Rites of PassageDR7 -0.19 дБ -8.66 дБ 4:39 02-Shamanic Technology (Floating in Ayahuasca)DR7 0.00 дБ -8.77 дБ 5:58 03-Ode To The MachineDR5 -0.01 дБ -7.34 дБ 4:16 04-Strange Glass FeelingDR7 -0.01 дБ -9.73 дБ 5:26 05-Thought Bubble ExperimentDR10 -1.03 дБ -13.72 дБ 1:38 06-Phonic SkyDR7 0.00 дБ -8.65 дБ 5:31 07-Electronic TherapyDR6 0.00 дБ -8.83 дБ 4:40 08-My Shadow CastingDR6 -0.19 дБ -8.41 дБ 4:27 09-XtractionsDR7 -0.01 дБ -9.14 дБ 5:13 10-MiRrOrSDR11 0.00 дБ -13.10 дБ 1:29 11-Moments of ReflectionDR6 -0.19 дБ -8.15 дБ 5:31 12-PathseekerDR10 -0.19 дБ -12.45 дБ 4:38 13-Toy VisionDR7 -0.01 дБ -10.36 дБ 5:13 14-Nostalgia--------------------------------------------------------------------------------
Количество треков: 14Реальные значения DR: DR8
Частота: 44100 ГцКаналов: 2Разрядность: 16Битрейт: 834 кбит/сКодек: FLAC================================================================================

Скриншоты спектра частот

(2015) Shamanic Technology - Shadow Work (Special Edition)

-Источник: Torrentc Shadow Work (Special Edition)
Жанр: Psystep, Dubstep, Future Garage, Glitch-Hop, Neuro-Hop
Дата релиза: 26.12.2015
Продолжительность: 03:07:24
Треклист Part One:
01. Shamanic Technology - The Day I Saw the World (Feat. Emily Kell) 03:23
02. Shamanic Technology - Glow Worm 04:48
03. Shamanic Technology - Cloud Powder 03:52
04. Shamanic Technology - Kenjutsu 03:37
05. Shamanic Technology - Shadow Work 06:33
06. Shamanic Technology - Hour Glass 04:29
07. Shamanic Technology - Our Future Lives 06:48
08. Shamanic Technology - Sky of Signs 06:30
09. Shamanic Technology - I Miss You (Cuts by Lonedrum) 05:20
Shamanic Technology - Shadow Work (Special Edition) Part I 45:09
Треклист Part Two:
01. Shamanic Technology - Here I Am 01:36
02. Shamanic Technology - Cannon Fist 04:18
03. Shamanic Technology - A Game of Life and Death 00:29
04. Shamanic Technology - At Last I Sleep 06:05
05. Shamanic Technology - Neophyte (Feat. Clarity) 03:01
06. Shamanic Technology - Trigram 01:11
07. Shamanic Technology - Cellular Circuitry 05:12
08. Shamanic Technology - Chidorian 05:57
09. Shamanic Technology - Universal Connectivity 03:34
10. Shamanic Technology - Towers 05:03
11. Shamanic Technology - Return to the Void 06:00
12. Shamanic Technology - Plot Twist 01:17
13. Shamanic Technology - Bloom 05:12
Shamanic Technology - Shadow Work (Special Edition) Part II 47:59
Формат файла: FLAC (*.flac)
Тип рипа: tracks
Разрядность: 16/44.1
Формат файла: PCM
Количество каналов: 2.0

О релизе

В каждой части находится continuous mix от музыканта.
--Head straight for the continuous mixes of part I & II to experience 'Shadow Work' how I intended it to be heard.-- Chris Hare

Замер динамического диапазона Part One

foobar2000 1.3.9 / Замер динамического диапазона (DR) 1.1.1Дата отчёта: 2019-01-06 15:09:10
--------------------------------------------------------------------------------Анализ: Shamanic Technology / Shadow Work Part One--------------------------------------------------------------------------------
DR Пики RMS Продолжительность трека--------------------------------------------------------------------------------DR5 -0.28 дБ -8.06 дБ 3:23 01-The Day I Saw the World (Feat. Emily Kell)DR4 0.00 дБ -5.34 дБ 4:48 02-Glow WormDR4 -0.20 дБ -6.01 дБ 3:52 03-Cloud PowderDR5 -0.20 дБ -6.34 дБ 3:37 04-KenjutsuDR6 -0.20 дБ -7.89 дБ 6:33 05-Shadow WorkDR6 -0.20 дБ -7.80 дБ 4:29 06-Hour GlassDR5 -0.17 дБ -6.84 дБ 6:48 07-Our Future LivesDR4 -0.20 дБ -6.11 дБ 6:30 08-Sky of SignsDR6 0.00 дБ -8.28 дБ 5:20 09-I Miss You (Cuts by Lonedrum)--------------------------------------------------------------------------------
Количество треков: 9Реальные значения DR: DR5
Частота: 44100 ГцКаналов: 2Разрядность: 16Битрейт: 860 кбит/сКодек: FLAC================================================================================

Замер динамического диапазона Part Two

foobar2000 1.3.9 / Замер динамического диапазона (DR) 1.1.1Дата отчёта: 2019-01-06 15:10:33
--------------------------------------------------------------------------------Анализ: Shamanic Technology / Shadow Work Part Two--------------------------------------------------------------------------------
DR Пики RMS Продолжительность трека--------------------------------------------------------------------------------DR7 0.00 дБ -10.41 дБ 1:36 01-Here I AmDR3 -0.20 дБ -4.98 дБ 4:18 02-Cannon FistDR8 0.00 дБ -10.57 дБ 0:29 03-A Game of Life and DeathDR6 -0.20 дБ -8.87 дБ 6:05 04-At Last I SleepDR8 0.00 дБ -9.26 дБ 3:01 05-Neophyte (Feat. Clarity)DR8 -0.20 дБ -11.89 дБ 1:11 06-TrigramDR5 -0.20 дБ -7.50 дБ 5:12 07-Cellular CircuitryDR5 -0.20 дБ -7.23 дБ 5:57 08-ChidorianDR6 -0.20 дБ -7.50 дБ 3:34 09-Universal ConnectivityDR5 -0.20 дБ -6.96 дБ 5:03 10-TowersDR5 0.00 дБ -6.76 дБ 6:00 11-Return to the VoidDR6 -0.20 дБ -9.14 дБ 1:17 12-Plot TwistDR6 -0.20 дБ -7.95 дБ 5:12 13-Bloom--------------------------------------------------------------------------------
Количество треков: 13Реальные значения DR: DR6
Частота: 44100 ГцКаналов: 2Разрядность: 16Битрейт: 876 кбит/сКодек: FLAC================================================================================

Скриншоты спектра частот

(2016) Shamanic Technology - Doorways (2006) 10 Year Anniversary Edition

-Источник: Torrentc Doorways (2006) 10 Year Anniversary Edition
Жанр: Downtempo, Psychill, IDM
Дата релиза: 07.11.2016
Продолжительность: 01:07:34
Треклист:
01. Shamanic Technology - Rites of Passage 00:43
02. Shamanic Technology - Floating in Ayahuasca 04:37
03. Shamanic Technology - Ode to the Machine 05:56
04. Shamanic Technology - Strange Glass Feeling 04:14
05. Shamanic Technology - Thought Bubble Experiment 05:24
06. Shamanic Technology - Phonic Sky 01:36
07. Shamanic Technology - Electronic Therapy 05:29
08. Shamanic Technology - My Shadow Casting 04:40
09. Shamanic Technology - Sacred Agent 03:01
10. Shamanic Technology - Xtractions 04:25
11. Shamanic Technology - Moments of Reflection 01:27
12. Shamanic Technology - Mirrors 05:11
13. Shamanic Technology - Pathseeker 05:29
14. Shamanic Technology - Tell Another Story 01:04
15. Shamanic Technology - Collections of Useless Things 04:30
16. Shamanic Technology - Toy Vision 04:36
17. Shamanic Technology - Nostalgia 05:09
Формат файла: FLAC (*.flac)
Тип рипа: tracks
Разрядность: 16/44.1
Формат файла: PCM
Количество каналов: 2.0

Замер динамического диапазона

foobar2000 1.3.9 / Замер динамического диапазона (DR) 1.1.1Дата отчёта: 2019-01-06 15:11:22
--------------------------------------------------------------------------------Анализ: Shamanic Technology / Doorways (2006) 10 Year Anniversary Edition--------------------------------------------------------------------------------
DR Пики RMS Продолжительность трека--------------------------------------------------------------------------------DR12 -5.54 дБ -21.89 дБ 0:43 01-Rites of PassageDR7 -0.19 дБ -8.61 дБ 4:37 02-Floating in AyahuascaDR7 0.00 дБ -8.72 дБ 5:56 03-Ode to the MachineDR5 -0.01 дБ -7.29 дБ 4:14 04-Strange Glass FeelingDR7 -0.01 дБ -9.69 дБ 5:24 05-Thought Bubble ExperimentDR10 -1.03 дБ -13.72 дБ 1:36 06-Phonic SkyDR7 0.00 дБ -8.61 дБ 5:29 07-Electronic TherapyDR6 0.00 дБ -8.83 дБ 4:40 08-My Shadow CastingDR9 -0.55 дБ -12.59 дБ 3:01 09-Sacred AgentDR6 -0.19 дБ -8.41 дБ 4:25 10-XtractionsDR11 0.00 дБ -13.10 дБ 1:27 11-Moments of ReflectionDR7 -0.01 дБ -9.09 дБ 5:11 12-MirrorsDR6 -0.19 дБ -8.11 дБ 5:29 13-PathseekerDR8 -0.20 дБ -12.21 дБ 1:04 14-Tell Another StoryDR5 -0.55 дБ -7.87 дБ 4:30 15-Collections of Useless ThingsDR10 -0.19 дБ -12.40 дБ 4:36 16-Toy VisionDR7 -0.01 дБ -10.28 дБ 5:09 17-Nostalgia--------------------------------------------------------------------------------
Количество треков: 17Реальные значения DR: DR7
Частота: 44100 ГцКаналов: 2Разрядность: 16Битрейт: 844 кбит/сКодек: FLAC================================================================================

Скриншоты спектра частот

(2017) Shamanic Technology - The Otherside Beat Tape Vol. 1 =Patchwork Anthology=

-Источник: Torrentc The Otherside Beat Tape Vol. 1 =Patchwork Anthology=
Жанр: Downtempo, Chill-Hop
Дата релиза: 02.11.2017
Продолжительность: 00:43:23
Треклист:
01. Shamanic Technology - Badvertising 00:20
02. Shamanic Technology - Roads (feat. Jay Enticknap) 03:06
03. Shamanic Technology - In The Fall (Downtime) 05:27
04. Shamanic Technology - Higher Orchestration Dub 04:08
05. Shamanic Technology - Kettle Black (feat. GoldMunD) 03:34
06. Shamanic Technology - See You On The Flipside 04:30
07. Shamanic Technology - Maybe We Can Fly 03:40
08. Shamanic Technology - This Old Fawkes 02:32
09. Shamanic Technology - Take 6 00:51
10. Shamanic Technology - Choose Your Weapon 03:53
11. Shamanic Technology - Dark Matter (feat. Clarity) 03:50
12. Shamanic Technology - The Otherside 04:12
13. Shamanic Technology - And Now Relax 03:21
Формат файла: FLAC (*.flac)
Тип рипа: tracks
Разрядность: 16/44.1 - tracks 4, 6, 8, 10; 24/44.1 - tracks 1-3, 5, 7, 9, 11-13
Формат файла: PCM
Количество каналов: 2.0

Замер динамического диапазона

foobar2000 1.3.9 / Замер динамического диапазона (DR) 1.1.1Дата отчёта: 2017-11-14 13:13:35
--------------------------------------------------------------------------------Анализ: Shamanic Technology / The Otherside Beat Tape Vol 1 "Patchwork Anthology"--------------------------------------------------------------------------------
DR Пики RMS Продолжительность трека--------------------------------------------------------------------------------DR8 -4.39 дБ -15.45 дБ 0:20 01-BadvertisingDR7 0.00 дБ -9.47 дБ 3:06 02-Roads (feat. Jay Enticknap)DR7 0.00 дБ -9.42 дБ 5:27 03-In The Fall (Downtime)--------------------------------------------------------------------------------
Количество треков: 3Реальные значения DR: DR7
Частота: 44100 ГцКаналов: 2Разрядность: 24Битрейт: 1431 кбит/сКодек: FLAC================================================================================
--------------------------------------------------------------------------------Статистика для: 04-Higher Orchestration DubКоличество сэмплов: 10929950Продолжительность: 4:08--------------------------------------------------------------------------------
Левый Правый
Пики: -0.60 дБ --- -0.60 дБСредний RMS: -8.57 дБ --- -8.51 дБDR канала: 6.93 дБ --- 6.85 дБ--------------------------------------------------------------------------------
Реальные значения DR: DR7
Частота: 44100 ГцКаналов: 2Разрядность: 16Битрейт: 816 кбит/сКодек: FLAC================================================================================--------------------------------------------------------------------------------Статистика для: 05-Kettle Black (feat. GoldMunD)Количество сэмплов: 9455063Продолжительность: 3:34--------------------------------------------------------------------------------
Левый Правый
Пики: 0.00 дБ --- 0.00 дБСредний RMS: -10.39 дБ --- -10.18 дБDR канала: 8.00 дБ --- 7.50 дБ--------------------------------------------------------------------------------
Реальные значения DR: DR8
Частота: 44100 ГцКаналов: 2Разрядность: 24Битрейт: 1381 кбит/сКодек: FLAC================================================================================--------------------------------------------------------------------------------Статистика для: 06-See You On The FlipsideКоличество сэмплов: 11907000Продолжительность: 4:30--------------------------------------------------------------------------------
Левый Правый
Пики: -1.94 дБ --- -1.94 дБСредний RMS: -8.86 дБ --- -8.54 дБDR канала: 5.11 дБ --- 4.72 дБ--------------------------------------------------------------------------------
Реальные значения DR: DR5
Частота: 44100 ГцКаналов: 2Разрядность: 16Битрейт: 793 кбит/сКодек: FLAC================================================================================--------------------------------------------------------------------------------Статистика для: 07-Maybe We Can FlyКоличество сэмплов: 9683730Продолжительность: 3:40--------------------------------------------------------------------------------
Левый Правый
Пики: 0.00 дБ --- 0.00 дБСредний RMS: -10.94 дБ --- -10.90 дБDR канала: 9.19 дБ --- 9.17 дБ--------------------------------------------------------------------------------
Реальные значения DR: DR9
Частота: 44100 ГцКаналов: 2Разрядность: 24Битрейт: 1500 кбит/сКодек: FLAC================================================================================--------------------------------------------------------------------------------Статистика для: 08-This Old FawkesКоличество сэмплов: 6695892Продолжительность: 2:32--------------------------------------------------------------------------------
Левый Правый
Пики: -0.30 дБ --- -0.30 дБСредний RMS: -11.10 дБ --- -11.14 дБDR канала: 9.34 дБ --- 9.31 дБ--------------------------------------------------------------------------------
Реальные значения DR: DR9
Частота: 44100 ГцКаналов: 2Разрядность: 16Битрейт: 512 кбит/сКодек: FLAC================================================================================--------------------------------------------------------------------------------Статистика для: 09-Take 6Количество сэмплов: 2229666Продолжительность: 0:51--------------------------------------------------------------------------------
Левый Правый
Пики: -0.19 дБ --- -0.19 дБСредний RMS: -9.12 дБ --- -8.73 дБDR канала: 8.07 дБ --- 7.15 дБ--------------------------------------------------------------------------------
Реальные значения DR: DR8
Частота: 44100 ГцКаналов: 2Разрядность: 24Битрейт: 1500 кбит/сКодек: FLAC================================================================================--------------------------------------------------------------------------------Статистика для: 10-Choose Your WeaponКоличество сэмплов: 10263481Продолжительность: 3:53--------------------------------------------------------------------------------
Левый Правый
Пики: 0.00 дБ --- 0.00 дБСредний RMS: -10.53 дБ --- -10.52 дБDR канала: 8.77 дБ --- 8.77 дБ--------------------------------------------------------------------------------
Реальные значения DR: DR9
Частота: 44100 ГцКаналов: 2Разрядность: 16Битрейт: 726 кбит/сКодек: FLAC================================================================================--------------------------------------------------------------------------------Анализ: Shamanic Technology / The Otherside Beat Tape Vol 1 "Patchwork Anthology"--------------------------------------------------------------------------------
DR Пики RMS Продолжительность трека--------------------------------------------------------------------------------DR7 -1.31 дБ -9.91 дБ 3:50 11-Dark Matter (feat. Clarity)DR7 -0.30 дБ -8.80 дБ 4:12 12-The OthersideDR6 0.00 дБ -8.85 дБ 3:21 13-And Now Relax--------------------------------------------------------------------------------
Количество треков: 3Реальные значения DR: DR7
Частота: 44100 ГцКаналов: 2Разрядность: 24Битрейт: 1400 кбит/сКодек: FLAC================================================================================

Скриншоты спектра частот

(2017) Shamanic Technology - The Otherside Beat Tape Vol. 2 =The Anime Flashback=

-Источник: Torrentc The Otherside Beat Tape Vol. 2 =The Anime Flashback=
Жанр: Downtempo, Chill-Hop
Дата релиза: 03.11.2017
Продолжительность: 00:51:36
Треклист:
01. Shamanic Technology - Soothsayer 04:23
02. Shamanic Technology - Tokyo Gaming 02:13
03. Shamanic Technology - The Greatest Fire (feat. Totemic) 03:53
04. Shamanic Technology - Rinjutsu 03:38
05. Shamanic Technology - For The Birds (feat. Sally Oh) [04:30
06. Shamanic Technology - Invisible Pieces (feat. Totemic & Lady G) 04:15
07. Shamanic Technology - You Make Me High 03:02
08. Shamanic Technology - The Forest Knows Your Name (feat. Lyndon Forster) 03:54
09. Shamanic Technology - M.A.G.O.I. 03:38
10. Shamanic Technology - Monsters Who Lie 04:47
11. Shamanic Technology - Our Timid Den 04:23
12. Shamanic Technology - We Could Be The Ones Who Save Us (feat. Kats Fifth) 03:10
13. Shamanic Technology - Anime Death Scene 05:50
Формат файла: FLAC (*.flac)
Тип рипа: tracks
Разрядность: 16/44.1 - tracks 3, 5, 9, 10, 12; 24/44.1 - tracks 1, 2, 4, 6-8, 11, 13
Формат файла: PCM
Количество каналов: 2.0

Замер динамического диапазона

foobar2000 1.3.9 / Замер динамического диапазона (DR) 1.1.1Дата отчёта: 2017-11-14 13:18:07
--------------------------------------------------------------------------------Анализ: Shamanic Technology / The Otherside Beat Tape Vol 2 "The Anime Flashback"--------------------------------------------------------------------------------
DR Пики RMS Продолжительность трека--------------------------------------------------------------------------------DR7 0.00 дБ -8.94 дБ 4:23 01-SoothsayerDR6 -2.30 дБ -9.38 дБ 2:13 02-Tokyo Gaming--------------------------------------------------------------------------------
Количество треков: 2Реальные значения DR: DR6
Частота: 44100 ГцКаналов: 2Разрядность: 24Битрейт: 1437 кбит/сКодек: FLAC================================================================================
--------------------------------------------------------------------------------Статистика для: 03-The Greatest Fire (feat. Totemic)Количество сэмплов: 10260227Продолжительность: 3:53--------------------------------------------------------------------------------
Левый Правый
Пики: -0.60 дБ --- -0.60 дБСредний RMS: -8.83 дБ --- -8.89 дБDR канала: 5.74 дБ --- 5.76 дБ--------------------------------------------------------------------------------
Реальные значения DR: DR6
Частота: 44100 ГцКаналов: 2Разрядность: 16Битрейт: 745 кбит/сКодек: FLAC================================================================================--------------------------------------------------------------------------------Статистика для: 04-RinjutsuКоличество сэмплов: 9604436Продолжительность: 3:38--------------------------------------------------------------------------------
Левый Правый
Пики: 0.00 дБ --- 0.00 дБСредний RMS: -9.67 дБ --- -9.69 дБDR канала: 8.28 дБ --- 8.30 дБ--------------------------------------------------------------------------------
Реальные значения DR: DR8
Частота: 44100 ГцКаналов: 2Разрядность: 24Битрейт: 1471 кбит/сКодек: FLAC================================================================================--------------------------------------------------------------------------------Статистика для: 05-For The Birds (feat. Sally Oh)Количество сэмплов: 11885192Продолжительность: 4:30--------------------------------------------------------------------------------
Левый Правый
Пики: -1.33 дБ --- -1.24 дБСредний RMS: -8.81 дБ --- -8.74 дБDR канала: 5.58 дБ --- 5.62 дБ--------------------------------------------------------------------------------
Реальные значения DR: DR6
Частота: 44100 ГцКаналов: 2Разрядность: 16Битрейт: 667 кбит/сКодек: FLAC================================================================================--------------------------------------------------------------------------------Анализ: Shamanic Technology / The Otherside Beat Tape Vol 2 "The Anime Flashback"--------------------------------------------------------------------------------
DR Пики RMS Продолжительность трека--------------------------------------------------------------------------------DR6 -1.24 дБ -8.49 дБ 4:15 06-Invisible Pieces (feat. Totemic & Lady G)DR7 0.00 дБ -7.92 дБ 3:02 07-You Make Me HighDR9 0.00 дБ -10.25 дБ 3:54 08-The Forest Knows Your Name (feat. Lyndon Forster)--------------------------------------------------------------------------------
Количество треков: 3Реальные значения DR: DR7
Частота: 44100 ГцКаналов: 2Разрядность: 24Битрейт: 1496 кбит/сКодек: FLAC================================================================================
--------------------------------------------------------------------------------Анализ: Shamanic Technology / The Otherside Beat Tape Vol 2 "The Anime Flashback"--------------------------------------------------------------------------------
DR Пики RMS Продолжительность трека--------------------------------------------------------------------------------DR6 -0.60 дБ -9.03 дБ 3:38 09-M.A.G.O.I.DR4 -2.11 дБ -8.63 дБ 4:47 10-Monsters Who Lie--------------------------------------------------------------------------------
Количество треков: 2Реальные значения DR: DR5
Частота: 44100 ГцКаналов: 2Разрядность: 16Битрейт: 650 кбит/сКодек: FLAC================================================================================
--------------------------------------------------------------------------------Статистика для: 11-Our Timid DenКоличество сэмплов: 11585746Продолжительность: 4:23--------------------------------------------------------------------------------
Левый Правый
Пики: 0.00 дБ --- 0.00 дБСредний RMS: -9.32 дБ --- -9.31 дБDR канала: 6.73 дБ --- 6.78 дБ--------------------------------------------------------------------------------
Реальные значения DR: DR7
Частота: 44100 ГцКаналов: 2Разрядность: 24Битрейт: 1522 кбит/сКодек: FLAC================================================================================--------------------------------------------------------------------------------Статистика для: 12-We Could Be The Ones Who Save Us (feat. Kats Fifth)Количество сэмплов: 8400581Продолжительность: 3:10--------------------------------------------------------------------------------
Левый Правый
Пики: -0.60 дБ --- -0.60 дБСредний RMS: -9.34 дБ --- -9.25 дБDR канала: 6.94 дБ --- 6.89 дБ--------------------------------------------------------------------------------
Реальные значения DR: DR7
Частота: 44100 ГцКаналов: 2Разрядность: 16Битрейт: 762 кбит/сКодек: FLAC================================================================================--------------------------------------------------------------------------------Статистика для: 13-Anime Death SceneКоличество сэмплов: 15429964Продолжительность: 5:50--------------------------------------------------------------------------------
Левый Правый
Пики: -1.42 дБ --- -1.42 дБСредний RMS: -6.36 дБ --- -6.36 дБDR канала: 3.31 дБ --- 3.31 дБ--------------------------------------------------------------------------------
Реальные значения DR: DR3
Частота: 44100 ГцКаналов: 2Разрядность: 24Битрейт: 1375 кбит/сКодек: FLAC================================================================================

Скриншоты спектра частот

(2018) Shamanic Technology & Dusko - Artifacts

-Источник: Torrentc Artifacts
Жанр: Chill-Hop, Dubstep, Future Garage, Drum'n'bass
Дата релиза: 20.12.2018
Продолжительность: 00:56:36
Треклист:
01. Shamanic Technology & Dusko - Artifacts of Nature 00:35
02. Shamanic Technology & Dusko - Let's Begin 03:34
03. Shamanic Technology & Dusko - Chasm 05:53
04. Shamanic Technology & Dusko - Firewalk 04:01
05. Shamanic Technology & Dusko - Whippet Moth 04:01
06. Shamanic Technology & Dusko - Temple Dub 01:06
07. Shamanic Technology & Dusko - True Rebellion 05:47
08. Shamanic Technology & Dusko - Be Good 00:29
09. Shamanic Technology & Dusko - What Happened? 05:23
10. Shamanic Technology & Dusko - Miyamoto 05:06
11. Shamanic Technology & Dusko - Hilarious 00:24
12. Shamanic Technology & Dusko - Jive Talk 03:53
13. Shamanic Technology & Dusko - Echos from Home 03:16
14. Shamanic Technology & Dusko - Outside 02:15
15. Shamanic Technology & Dusko - Monolith 04:55
16. Shamanic Technology & Dusko - Relic 02:06
17. Shamanic Technology & Dusko - Keygen.crk 03:52
Формат файла: FLAC (*.flac)
Тип рипа: tracks
Разрядность: 16/44.1 - tracks 1-16; 24/44.1 - track 17
Формат файла: PCM
Количество каналов: 2.0

Замер динамического диапазона

foobar2000 1.3.9 / Замер динамического диапазона (DR) 1.1.1Дата отчёта: 2018-12-22 17:58:18
--------------------------------------------------------------------------------Анализ: Shamanic Technology & Dusko / Artifacts--------------------------------------------------------------------------------
DR Пики RMS Продолжительность трека--------------------------------------------------------------------------------DR8 0.00 дБ -10.73 дБ 0:35 01-Artifacts of NatureDR5 -0.23 дБ -7.60 дБ 3:34 02-Let's BeginDR3 -0.39 дБ -6.04 дБ 5:53 03-ChasmDR3 -0.21 дБ -5.63 дБ 4:01 04-FirewalkDR4 -0.21 дБ -5.70 дБ 4:01 05-Whippet MothDR4 0.00 дБ -7.28 дБ 1:06 06-Temple DubDR4 -0.23 дБ -6.87 дБ 5:47 07-True RebellionDR7 -0.30 дБ -9.60 дБ 0:29 08-Be GoodDR5 0.00 дБ -7.31 дБ 5:23 09-What Happened?DR3 -0.21 дБ -5.47 дБ 5:06 10-MiyamotoDR6 0.00 дБ -8.25 дБ 0:24 11-HilariousDR2 -0.21 дБ -4.39 дБ 3:53 12-Jive TalkDR7 0.00 дБ -9.09 дБ 3:16 13-Echos from HomeDR6 0.00 дБ -10.68 дБ 2:15 14-OutsideDR3 -0.21 дБ -6.13 дБ 4:55 15-MonolithDR4 0.00 дБ -7.27 дБ 2:06 16-Relic--------------------------------------------------------------------------------
Количество треков: 16Реальные значения DR: DR5
Частота: 44100 ГцКаналов: 2Разрядность: 16Битрейт: 781 кбит/сКодек: FLAC================================================================================
--------------------------------------------------------------------------------Статистика для: 17-Keygen.crkКоличество сэмплов: 10247196Продолжительность: 3:52--------------------------------------------------------------------------------
Левый Правый
Пики: -0.28 дБ --- -0.28 дБСредний RMS: -6.74 дБ --- -6.68 дБDR канала: 4.55 дБ --- 4.52 дБ--------------------------------------------------------------------------------
Реальные значения DR: DR5
Частота: 44100 ГцКаналов: 2Разрядность: 24Битрейт: 1688 кбит/сКодек: FLAC================================================================================

Скриншоты спектра частот

EPs & Remixes(2013) Shamanic Technology - Luna Sign E.P. - Part I

-Источник: Torrentc Luna Sign E.P. - Part I
Жанр: Dubstep, Psystep, Future Garage, Neuro-Hop
Дата релиза: 20.08.2013
Продолжительность: 00:28:15
Треклист:
01. Shamanic Technology - Twin Keys (Feat.Pascal Stanley) 03:51
02. Shamanic Technology - Mynd Fiya 05:29
03. Shamanic Technology - Falling Into the Flame (Luna Refix) 04:25
04. Shamanic Technology - I Remember You (Remastered) 05:25
05. Shamanic Technology - Luminosity 04:57
06. Shamanic Technology - Neuro Wolf 04:08
Формат файла: FLAC (*.flac)
Тип рипа: tracks
Разрядность: 24/44.1
Формат файла: PCM
Количество каналов: 2.0

Замер динамического диапазона

foobar2000 1.3.9 / Замер динамического диапазона (DR) 1.1.1Дата отчёта: 2017-02-16 12:16:22
--------------------------------------------------------------------------------Анализ: Shamanic Technology / Luna Sign E.P. - Part I--------------------------------------------------------------------------------
DR Пики RMS Продолжительность трека--------------------------------------------------------------------------------DR4 0.00 дБ -5.84 дБ 3:51 01-Twin Keys (Feat.Pascal Stanley)DR6 0.00 дБ -8.09 дБ 5:29 02-Mynd FiyaDR4 -0.45 дБ -6.19 дБ 4:25 03-Falling Into the Flame (Luna Refix)DR6 -1.37 дБ -8.73 дБ 5:25 04-I Remember You (Remastered)DR6 0.00 дБ -8.22 дБ 4:57 05-LuminosityDR5 -0.56 дБ -7.71 дБ 4:08 06-Neuro Wolf--------------------------------------------------------------------------------
Количество треков: 6Реальные значения DR: DR5
Частота: 44100 ГцКаналов: 2Разрядность: 24Битрейт: 1630 кбит/сКодек: FLAC================================================================================

Скриншоты спектра частот

(2015) Shamanic Technology - Simulation Theory EP

-Источник: Torrentc Simulation Theory EP
Жанр: Dubstep, Psystep, Neuro-Hop
Дата релиза: 28.01.2015
Продолжительность: 00:16:10
Треклист:
01. Shamanic Technology - Trigram 01:11
02. Shamanic Technology - Cellular Circuitry 05:12
03. Shamanic Technology - Nightshifter 05:27
04. Shamanic Technology - Homeostasis 04:19
Формат файла: FLAC (*.flac)
Тип рипа: tracks
Разрядность: 16/44.1
Формат файла: PCM
Количество каналов: 2.0

Замер динамического диапазона

foobar2000 1.3.9 / Замер динамического диапазона (DR) 1.1.1Дата отчёта: 2019-01-06 15:19:17
--------------------------------------------------------------------------------Анализ: Shamanic Technology / Simulation Theory EP--------------------------------------------------------------------------------
DR Пики RMS Продолжительность трека--------------------------------------------------------------------------------DR8 -0.20 дБ -11.89 дБ 1:11 01-TrigramDR5 -0.20 дБ -7.50 дБ 5:12 02-Cellular CircuitryDR5 -0.20 дБ -6.83 дБ 5:27 03-NightshifterDR4 -0.20 дБ -6.18 дБ 4:19 04-Homeostasis--------------------------------------------------------------------------------
Количество треков: 4Реальные значения DR: DR6
Частота: 44100 ГцКаналов: 2Разрядность: 16Битрейт: 982 кбит/сКодек: FLAC================================================================================

Скриншоты спектра частот

(2016) Shamanic Technology - Various Remixes

-Источник: Torrentc Various Remixes
Жанр: Hip-Hop, Glitch-Hop, Neuro-Hop, Dubstep
Дата релиза: 24.10.2016
Продолжительность: 00:33:51
Треклист:
01. Sedge Warbler - Octopus Lover (Shamanic Technology 2014 Remix) 04:50
02. PistolShrimp - Cyborg (Shamanic Technology Remix) 04:40
03. Dizraeli & The Small Gods - Million Miles (Shamanic Technology Remix) 05:28
04. Archetek & Ethics - The Mack (Shamanic Technology Remix) 04:24
05. K+Lab - The Mothership (Shamanic Technology Remix) 05:11
06. Si Begg - Panic (Shamanic Technology Remix) 04:41
07. Skytree - Quartz Resonance (Shamanic Technology Remix) 04:38
Формат файла: FLAC (*.flac)
Тип рипа: tracks
Разрядность: 16/44.1 - tracks 1-5; 24/44.1 - tracks 6-7
Формат файла: PCM
Количество каналов: 2.0

Замер динамического диапазона

foobar2000 1.3.9 / Замер динамического диапазона (DR) 1.1.1Дата отчёта: 2019-01-06 15:20:09
--------------------------------------------------------------------------------Анализ: Archetek & Ethics / Various Remixes (1) Dizraeli & The Small Gods / Various Remixes (2) K+Lab / Various Remixes (3) PistolShrimp / Various Remixes (4) Sedge Warbler / Various Remixes (5)--------------------------------------------------------------------------------
DR Пики RMS Продолжительность трека--------------------------------------------------------------------------------DR4 -0.21 дБ -6.19 дБ 4:24 04-The Mack (Shamanic Technology Remix)DR6 -0.14 дБ -8.31 дБ 5:28 03-Million Miles (Shamanic Technology Remix)DR6 -0.02 дБ -8.33 дБ 5:11 05-The Mothership (Shamanic Technology Remix)DR5 -0.25 дБ -6.80 дБ 4:40 02-Cyborg (Shamanic Technology Remix)DR5 0.00 дБ -6.81 дБ 4:50 01-Octopus Lover (Shamanic Technology 2014 Remix)--------------------------------------------------------------------------------
Количество треков: 5Реальные значения DR: DR5
Частота: 44100 ГцКаналов: 2Разрядность: 16Битрейт: 996 кбит/сКодек: FLAC================================================================================
--------------------------------------------------------------------------------Анализ: Si Begg / Various Remixes (1) Skytree / Various Remixes (2)--------------------------------------------------------------------------------
DR Пики RMS Продолжительность трека--------------------------------------------------------------------------------DR7 -0.27 дБ -9.45 дБ 4:41 06-Panic (Shamanic Technology Remix)DR7 -0.01 дБ -8.70 дБ 4:38 07-Quartz Resonance (Shamanic Technology Remix)--------------------------------------------------------------------------------
Количество треков: 2Реальные значения DR: DR7
Частота: 44100 ГцКаналов: 2Разрядность: 24Битрейт: 1573 кбит/сКодек: FLAC================================================================================

Скриншоты спектра частот

(2017) SIXIS - Wandering Deeper (Shamanic Technology Remix)

-Источник: Torrentc SIXIS - Wandering Deeper (Shamanic Technology Remix)
Жанр: Psystep, Neuro-Hop
Дата релиза: 09.04.2017
Продолжительность: 00:04:52
Треклист:
01. SIXIS - Wandering Deeper (Shamanic Technology Remix) 04:52
Формат файла: FLAC (*.flac)
Тип рипа: tracks
Разрядность: 24/44.1
Формат файла: PCM
Количество каналов: 2.0

Замер динамического диапазона

foobar2000 1.3.9 / Замер динамического диапазона (DR) 1.1.1Дата отчёта: 2017-09-11 14:31:02
--------------------------------------------------------------------------------Статистика для: 01-Wandering Deeper (Shamanic Technology Remix)Количество сэмплов: 12912480Продолжительность: 4:53--------------------------------------------------------------------------------
Левый Правый
Пики: -0.09 дБ --- -0.10 дБСредний RMS: -6.93 дБ --- -6.85 дБDR канала: 5.62 дБ --- 5.59 дБ--------------------------------------------------------------------------------
Реальные значения DR: DR6
Частота: 44100 ГцКаналов: 2Разрядность: 24Битрейт: 1575 кбит/сКодек: FLAC================================================================================

Скриншоты спектра частот

(2017) Shamanic Technology - From the Vault (Original Singles) [Remastered, Unreleased B-Sides & Old Tunes]

-Источник: Torrentc From the Vault (Original Singles)
Жанр: Psybreaks, Dubstep, Psydub, Glitch-Hop
Дата релиза: 22.11.2017
Продолжительность: 00:51:48
Треклист:
01. Shamanic Technology - Turtle Funk (2011 Unreleased) 04:48
02. Shamanic Technology - Shake a Tail Feather (2009 Remastered) 05:20
03. Shamanic Technology - Onix (2009 Unreleased) 05:36
04. Shamanic Technology - Temple of Mind (2008 Remastered) 04:54
05. Shamanic Technology - Alone in the Dark (2010 Unreleased) 04:42
06. Shamanic Technology - Kaiju (2013 Original) 05:06
07. Shamanic Technology - Rasengan (2016 Original) 04:42
08. Shamanic Technology - Psycho Flexing (2012 Original) 05:24
09. Shamanic Technology - Wizard Talk (2015 Original) 05:04
10. Shamanic Technology - Unified Frequencies (2012 Original) 06:12
Формат файла: FLAC (*.flac)
Тип рипа: tracks
Разрядность: 16/44.1 - tracks 6-9; 24/44.1 - tracks 1-5, 10
Формат файла: PCM
Количество каналов: 2.0

Замер динамического диапазона

foobar2000 1.3.9 / Замер динамического диапазона (DR) 1.1.1Дата отчёта: 2017-11-26 10:45:20
--------------------------------------------------------------------------------Анализ: Shamanic Technology / From the Vault (Original Singles) [Remastered, Unreleased B-Sides & Old Tunes]--------------------------------------------------------------------------------
DR Пики RMS Продолжительность трека--------------------------------------------------------------------------------DR5 0.00 дБ -6.32 дБ 4:48 01-Turtle Funk (2011 Unreleased)DR5 0.00 дБ -6.31 дБ 5:20 02-Shake a Tail Feather (2009 Remastered)DR6 0.00 дБ -7.27 дБ 5:36 03-Onix (2009 Unreleased)DR5 0.00 дБ -6.70 дБ 4:54 04-Temple of Mind (2008 Remastered)DR4 -0.01 дБ -5.88 дБ 4:42 05-Alone in the Dark (2010 Unreleased)--------------------------------------------------------------------------------
Количество треков: 5Реальные значения DR: DR5
Частота: 44100 ГцКаналов: 2Разрядность: 24Битрейт: 1637 кбит/сКодек: FLAC================================================================================
--------------------------------------------------------------------------------Анализ: Shamanic Technology / From the Vault (Original Singles) [Remastered, Unreleased B-Sides & Old Tunes]--------------------------------------------------------------------------------
DR Пики RMS Продолжительность трека--------------------------------------------------------------------------------DR5 -0.32 дБ -6.51 дБ 5:06 06-Kaiju (2013 Original)DR6 -0.33 дБ -8.23 дБ 4:42 07-Rasengan (2016 Original)DR2 -0.19 дБ -4.59 дБ 5:24 08-Psycho Flexing (2012 Original)DR7 0.00 дБ -7.86 дБ 5:04 09-Wizard Talk (2015 Original)--------------------------------------------------------------------------------
Количество треков: 4Реальные значения DR: DR5
Частота: 44100 ГцКаналов: 2Разрядность: 16Битрейт: 953 кбит/сКодек: FLAC================================================================================
--------------------------------------------------------------------------------Статистика для: 10-Unified Frequencies (2012 Original)Количество сэмплов: 16405201Продолжительность: 6:12--------------------------------------------------------------------------------
Левый Правый
Пики: 0.00 дБ --- 0.00 дБСредний RMS: -6.59 дБ --- -6.24 дБDR канала: 4.93 дБ --- 4.61 дБ--------------------------------------------------------------------------------
Реальные значения DR: DR5
Частота: 44100 ГцКаналов: 2Разрядность: 24Битрейт: 1639 кбит/сКодек: FLAC================================================================================

Скриншоты спектра частот

(2017) Anatu - Bleach (Shamanic Technology Remix)

-Источник: Torrentc Anatu - Bleach (Shamanic Technology Remix)
Жанр: Chilldub, Glitch-Hop
Дата релиза: 05.12.2017
Продолжительность: 00:05:30
Треклист:
01. Anatu - Bleach (Shamanic Technology Remix) 05:30
Формат файла: FLAC (*.flac)
Тип рипа: tracks
Разрядность: 24/44.1
Формат файла: PCM
Количество каналов: 2.0

Замер динамического диапазона

foobar2000 1.3.9 / Замер динамического диапазона (DR) 1.1.1Дата отчёта: 2018-02-08 16:28:26
--------------------------------------------------------------------------------Статистика для: 01-Bleach (Shamanic Technology Remix)Количество сэмплов: 14576343Продолжительность: 5:31--------------------------------------------------------------------------------
Левый Правый
Пики: -0.01 дБ --- -0.01 дБСредний RMS: -6.96 дБ --- -7.05 дБDR канала: 4.68 дБ --- 4.71 дБ--------------------------------------------------------------------------------
Реальные значения DR: DR5
Частота: 44100 ГцКаналов: 2Разрядность: 24Битрейт: 1499 кбит/сКодек: FLAC================================================================================

Скриншоты спектра частот

(2018) Shamanic Technology & Mirrorman - Settle the Dust E.P.

-Источник: Torrentc Settle the Dust E.P.
Жанр: Dubstep, Drum'n'Bass, Future Garage
Дата релиза: 06.02.2018
Продолжительность: 00:40:58
Треклист:
01. Shamanic Technology & Mirrorman - Settle the Dust (Original) 04:57
02. Shamanic Technology & Mirrorman - Settle the Dust (Mirrorman VIP) 05:00
03. Shamanic Technology & Mirrorman - Settle the Dust (Shamanic Technology Remix) 06:09
04. Shamanic Technology - Shimmer 05:11
05. Shamanic Technology & Mirrorman - Nightshifter (Mirrorman Remix) 04:32
06. Mirrorman - Covenant 05:08
07. Shamanic Technology - Lost Chamber 04:34
08. Shamanic Technology - Nightshifter 05:27
Формат файла: FLAC (*.flac)
Тип рипа: tracks
Разрядность: 16/44.1
Формат файла: PCM
Количество каналов: 2.0

Замер динамического диапазона

foobar2000 1.3.9 / Замер динамического диапазона (DR) 1.1.1Дата отчёта: 2019-01-06 15:22:15
--------------------------------------------------------------------------------Анализ: Mirrorman / Settle the Dust E.P. (1) Shamanic Technology & Mirrorman / Settle the Dust E.P. (2-5) Shamanic Technology / Settle the Dust E.P. (6-8)--------------------------------------------------------------------------------
DR Пики RMS Продолжительность трека--------------------------------------------------------------------------------DR5 0.00 дБ -7.75 дБ 5:08 06-CovenantDR5 -0.01 дБ -6.67 дБ 4:57 01-Settle the Dust (Original)DR5 -0.10 дБ -6.69 дБ 5:00 02-Settle the Dust (Mirrorman VIP)DR4 0.00 дБ -6.13 дБ 6:09 03-Settle the Dust (Shamanic Technology Remix)DR5 -0.10 дБ -7.51 дБ 4:32 05-Nightshifter (Mirrorman Remix)DR5 0.00 дБ -6.02 дБ 5:11 04-ShimmerDR7 0.00 дБ -8.55 дБ 4:34 07-Lost ChamberDR5 -0.20 дБ -6.83 дБ 5:27 08-Nightshifter--------------------------------------------------------------------------------
Количество треков: 8Реальные значения DR: DR5
Частота: 44100 ГцКаналов: 2Разрядность: 16Битрейт: 888 кбит/сКодек: FLAC================================================================================

Скриншоты спектра частот

-


[chi5o.com]_t_5358260.torrent
Торрент: Зарегистрирован ·  [ 2019-01-07 13:28 ] ·  d07ebc6e95dfd4c3a2d03bde412a185670b127cc

48 KB

Статус: проверено
Скачан: 0 раз
Размер: 4.59 GB
Оценка: 
(Голосов: 0)
Сказали спасибо: 0  Спасибо
Похожие темы
[Профиль]    [ЛС]
Показать сообщения:    
Ответить на тему

Текущее время: Сегодня 16:51

Часовой пояс: GMT + 7



Вы не можете начинать темы
Вы не можете отвечать на сообщения
Вы не можете редактировать свои сообщения
Вы не можете удалять свои сообщения
Вы не можете голосовать в опросах
Вы не можете прикреплять файлы к сообщениям
Вы можете скачивать файлы


[PetiteBallerinasFucked] Joseline Kelly (My Beautiful Ballerina - 05.11.15) r... | Pertinence | BMW 118 diesel