(House) [CD] VA - The Future Sound Of Chicago (DJ Mix of Cajmere and DJ Sneak) - [#SOMCD03] - 1995, FLAC (tracks), lossless

Ответить на тему
Статистика раздачи [Обновить пиров]
Размер:  617 MB   |    Зарегистрирован:  1 месяц 11 дней   |    Скачан:  0 раз

Полного источника не было: Никогда

 
   
 
 
 
Автор Сообщение

chi5o.com

Создавать темы 07-Янв-2019 12:30

[Цитировать]

The Future Sound Of Chicago- -Жанр: House
Год выхода диска: 1995
Производитель диска: UK / Cajual and Relief Records
Аудио кодек: FLAC
Тип рипа: tracks
Битрейт аудио: lossless
Продолжительность: 76:01
Источник: свой рип (перезалито 18 12 2018
-1. Gemini - Le Fusion (6:04)
2. G.U. - Beyond (6:15)
3. Markey - Bounce (5:09)
4. Cajmere - Horny (4:11)
5. Gemini - For The Crazy (4:40)
6. DJ Sneak - Runaway Train (4:40)
7. Green Velvet - Flash (5:51)
8. DJ Rush - But It Really Doesn't Matter With Me Now (5:42)
9. DJ Boris - Apacalypse (6:09)
10. DJ Sneak - Percolate This Track (2:55)
11. Paul Johnson - Traction (5:14)
12. Boo Williams - Midnight Express (4:11)
13. Tim Harper - Return Of The Dragon (4:13)
14. Green Velvet - The Preacher Man (7:54)
15. Paul Johnson - The Music In Me (2:53)

Log

Exact Audio Copy V1.3 from 2. September 2016
EAC extraction logfile from 17. December 2018, 22:43
Cajmere & DJ Sneak / The Future Sound of Chicago
Used drive : Optiarc BD-ROM BR-5100S Adapter: 1 ID: 0
Read mode : SecureUtilize accurate stream : YesDefeat audio cache : YesMake use of C2 pointers : No
Read offset correction : 79Overread into Lead-In and Lead-Out : NoFill up missing offset samples with silence : YesDelete leading and trailing silent blocks : NoNull samples used in CRC calculations : YesUsed interface : Installed external ASPI interfaceGap handling : Appended to previous track
Used output format : User Defined EncoderSelected bitrate : 128 kBit/sQuality : HighAdd ID3 tag : NoCommand line compressor : D:\flac-1.3.2-win\win64\flac.exeAdditional command line options : -8 -V -T "ARTIST=%artist%" -T "TITLE=%title%" -T "ALBUM=%albumtitle%" -T "DATE=%year%" -T "TRACKNUMBER=%tracknr%" -T "GENRE=%genre%" -T "COMMENT=ripped by Andy aka yetiisyou" %source%
TOC of the extracted CD
Track | Start | Length | Start sector | End sector --------------------------------------------------------- 1 | 0:00.00 | 6:04.25 | 0 | 27324 2 | 6:04.25 | 6:15.12 | 27325 | 55461 3 | 12:19.37 | 5:09.38 | 55462 | 78674 4 | 17:29.00 | 4:11.02 | 78675 | 97501 5 | 21:40.02 | 4:40.30 | 97502 | 118531 6 | 26:20.32 | 4:40.65 | 118532 | 139596 7 | 31:01.22 | 5:51.28 | 139597 | 165949 8 | 36:52.50 | 5:42.32 | 165950 | 191631 9 | 42:35.07 | 6:09.65 | 191632 | 219371 10 | 48:44.72 | 2:55.73 | 219372 | 232569 11 | 51:40.70 | 5:14.60 | 232570 | 256179 12 | 56:55.55 | 4:11.67 | 256180 | 275071 13 | 61:07.47 | 4:13.48 | 275072 | 294094 14 | 65:21.20 | 7:54.60 | 294095 | 329704 15 | 73:16.05 | 2:53.17 | 329705 | 342696
Track 1
Filename E:\!Ripped by Andy aka yetiisyou\VA - Cajmere & DJ Sneak - The Future Sound Of Chicago - Cajual Relief [SOMCD3] [1995]\01. Gemini - Le Fusion.wav
Pre-gap length 0:00:02.00
Peak level 97.9 % Extraction speed 3.4 X Track quality 100.0 % Test CRC 3C8417BD Copy CRC 3C8417BD Cannot be verified as accurate (confidence 3) [34A27B6C], AccurateRip returned [2A16364D] (AR v2) Copy OK
Track 2
Filename E:\!Ripped by Andy aka yetiisyou\VA - Cajmere & DJ Sneak - The Future Sound Of Chicago - Cajual Relief [SOMCD3] [1995]\02. GU - Beyond.wav
Peak level 100.0 % Extraction speed 3.5 X Track quality 99.9 % Test CRC 1DFAC166 Copy CRC 1DFAC166 Cannot be verified as accurate (confidence 2) [B90ACA12], AccurateRip returned [332D7875] (AR v2) Copy OK
Track 3
Filename E:\!Ripped by Andy aka yetiisyou\VA - Cajmere & DJ Sneak - The Future Sound Of Chicago - Cajual Relief [SOMCD3] [1995]\03. Markey - Bounce.wav
Peak level 100.0 % Extraction speed 4.1 X Track quality 100.0 % Test CRC A92DA8C7 Copy CRC A92DA8C7 Cannot be verified as accurate (confidence 2) [26A22B58], AccurateRip returned [A641CF94] (AR v2) Copy OK
Track 4
Filename E:\!Ripped by Andy aka yetiisyou\VA - Cajmere & DJ Sneak - The Future Sound Of Chicago - Cajual Relief [SOMCD3] [1995]\04. Cajmere - Horny (Horny Toad mix).wav
Peak level 100.0 % Extraction speed 4.3 X Track quality 100.0 % Test CRC 747FB56C Copy CRC 747FB56C Cannot be verified as accurate (confidence 2) [A73789F2], AccurateRip returned [5D77DC33] (AR v2) Copy OK
Track 5
Filename E:\!Ripped by Andy aka yetiisyou\VA - Cajmere & DJ Sneak - The Future Sound Of Chicago - Cajual Relief [SOMCD3] [1995]\05. Gemini - For the Crazy.wav
Peak level 100.0 % Extraction speed 4.6 X Track quality 100.0 % Test CRC 6B54E844 Copy CRC 6B54E844 Cannot be verified as accurate (confidence 2) [49D917D1], AccurateRip returned [1021B5FE] (AR v2) Copy OK
Track 6
Filename E:\!Ripped by Andy aka yetiisyou\VA - Cajmere & DJ Sneak - The Future Sound Of Chicago - Cajual Relief [SOMCD3] [1995]\06. DJ Sneak - Runaway Train.wav
Peak level 100.0 % Extraction speed 4.3 X Track quality 99.9 % Test CRC EC0EB32C Copy CRC EC0EB32C Cannot be verified as accurate (confidence 3) [A344EF4F], AccurateRip returned [E8134B9C] (AR v2) Copy OK
Track 7
Filename E:\!Ripped by Andy aka yetiisyou\VA - Cajmere & DJ Sneak - The Future Sound Of Chicago - Cajual Relief [SOMCD3] [1995]\07. Green Velvet - Flash.wav
Peak level 100.0 % Extraction speed 5.2 X Track quality 100.0 % Test CRC 1A2D9FFF Copy CRC 1A2D9FFF Cannot be verified as accurate (confidence 3) [C4F62DCE], AccurateRip returned [BBF23410] (AR v2) Copy OK
Track 8
Filename E:\!Ripped by Andy aka yetiisyou\VA - Cajmere & DJ Sneak - The Future Sound Of Chicago - Cajual Relief [SOMCD3] [1995]\08. DJ Rush - But It Really Doesn't Matter With Me Now.wav
Peak level 100.0 % Extraction speed 5.5 X Track quality 100.0 % Test CRC EBB6863D Copy CRC EBB6863D Cannot be verified as accurate (confidence 3) [3DD40C21], AccurateRip returned [73377EE7] (AR v2) Copy OK
Track 9
Filename E:\!Ripped by Andy aka yetiisyou\VA - Cajmere & DJ Sneak - The Future Sound Of Chicago - Cajual Relief [SOMCD3] [1995]\09. DJ Boris - Apacalypse.wav
Peak level 100.0 % Extraction speed 5.3 X Track quality 99.9 % Test CRC A564CA46 Copy CRC A564CA46 Cannot be verified as accurate (confidence 3) [27B638BB], AccurateRip returned [7A33E538] (AR v2) Copy OK
Track 10
Filename E:\!Ripped by Andy aka yetiisyou\VA - Cajmere & DJ Sneak - The Future Sound Of Chicago - Cajual Relief [SOMCD3] [1995]\10. DJ Sneak - Percolate This Track.wav
Peak level 100.0 % Extraction speed 4.6 X Track quality 99.9 % Test CRC 003607D8 Copy CRC 003607D8 Cannot be verified as accurate (confidence 3) [C174E018], AccurateRip returned [220FE611] (AR v2) Copy OK
Track 11
Filename E:\!Ripped by Andy aka yetiisyou\VA - Cajmere & DJ Sneak - The Future Sound Of Chicago - Cajual Relief [SOMCD3] [1995]\11. Paul Johnson - Traction.wav
Peak level 100.0 % Extraction speed 6.0 X Track quality 100.0 % Test CRC 68C630B7 Copy CRC 68C630B7 Cannot be verified as accurate (confidence 3) [86D1EFB0], AccurateRip returned [FE762C25] (AR v2) Copy OK
Track 12
Filename E:\!Ripped by Andy aka yetiisyou\VA - Cajmere & DJ Sneak - The Future Sound Of Chicago - Cajual Relief [SOMCD3] [1995]\12. Boo Williams - Midnight Express.wav
Peak level 93.3 % Extraction speed 6.0 X Track quality 100.0 % Test CRC A7487469 Copy CRC A7487469 Cannot be verified as accurate (confidence 3) [4CF8F75D], AccurateRip returned [7BE78172] (AR v2) Copy OK
Track 13
Filename E:\!Ripped by Andy aka yetiisyou\VA - Cajmere & DJ Sneak - The Future Sound Of Chicago - Cajual Relief [SOMCD3] [1995]\13. Tim Harper - Return of the Dragon.wav
Peak level 93.3 % Extraction speed 5.5 X Track quality 99.9 % Test CRC 30830A84 Copy CRC 30830A84 Cannot be verified as accurate (confidence 3) [4818F1A3], AccurateRip returned [BE30ACD2] (AR v2) Copy OK
Track 14
Filename E:\!Ripped by Andy aka yetiisyou\VA - Cajmere & DJ Sneak - The Future Sound Of Chicago - Cajual Relief [SOMCD3] [1995]\14. Green Velvet - Preacher Man.wav
Peak level 100.0 % Extraction speed 6.4 X Track quality 100.0 % Test CRC 1957BD6E Copy CRC 1957BD6E Cannot be verified as accurate (confidence 3) [828D9E4B], AccurateRip returned [D966EB0D] (AR v2) Copy OK
Track 15
Filename E:\!Ripped by Andy aka yetiisyou\VA - Cajmere & DJ Sneak - The Future Sound Of Chicago - Cajual Relief [SOMCD3] [1995]\15. Paul Johnson - The Music in Me.wav
Peak level 100.0 % Extraction speed 3.3 X Track quality 100.0 % Test CRC 29056645 Copy CRC 29056645 Cannot be verified as accurate (confidence 3) [CA2B109A], AccurateRip returned [1EB6F9ED] (AR v2) Copy OK
No tracks could be verified as accurateYou may have a different pressing from the one(s) in the database
No errors occurred
End of status report
---- CUETools DB Plugin V2.1.6
[CTDB TOCID: M5wCgUT2NG2UBBAuItfS3l8gJKI-] foundSubmit result: M5wCgUT2NG2UBBAuItfS3l8gJKI- has been confirmedTrack | CTDB Status 1 | (6/8) Accurately ripped 2 | (8/8) Accurately ripped 3 | (8/8) Accurately ripped 4 | (8/8) Accurately ripped 5 | (8/8) Accurately ripped 6 | (8/8) Accurately ripped 7 | (8/8) Accurately ripped 8 | (8/8) Accurately ripped 9 | (8/8) Accurately ripped 10 | (8/8) Accurately ripped 11 | (8/8) Accurately ripped 12 | (8/8) Accurately ripped 13 | (8/8) Accurately ripped 14 | (6/8) Accurately ripped 15 | (7/8) Accurately ripped
==== Log checksum 3DF5546A7A7A08D72244909D89423E1620EC89C10CAAFEB20E2CD55FB3454E7B ====

CUE

REM DATE 1995REM DISCID D111D90FREM COMMENT "ExactAudioCopy v1.3"CATALOG 0000000000000PERFORMER "Cajmere & DJ Sneak"TITLE "The Future Sound of Chicago"REM COMPOSER ""FILE "01. Gemini - Le Fusion.wav" WAVE TRACK 01 AUDIO TITLE "Le Fusion" PERFORMER "Gemini" REM COMPOSER "" INDEX 01 00:00:00FILE "02. GU - Beyond.wav" WAVE TRACK 02 AUDIO TITLE "Beyond" PERFORMER "GU" REM COMPOSER "" INDEX 01 00:00:00FILE "03. Markey - Bounce.wav" WAVE TRACK 03 AUDIO TITLE "Bounce" PERFORMER "Markey" REM COMPOSER "" INDEX 01 00:00:00FILE "04. Cajmere - Horny (Horny Toad mix).wav" WAVE TRACK 04 AUDIO TITLE "Horny (Horny Toad mix)" PERFORMER "Cajmere" REM COMPOSER "" INDEX 01 00:00:00FILE "05. Gemini - For the Crazy.wav" WAVE TRACK 05 AUDIO TITLE "For the Crazy" PERFORMER "Gemini" REM COMPOSER "" INDEX 01 00:00:00FILE "06. DJ Sneak - Runaway Train.wav" WAVE TRACK 06 AUDIO TITLE "Runaway Train" PERFORMER "DJ Sneak" REM COMPOSER "" INDEX 01 00:00:00FILE "07. Green Velvet - Flash.wav" WAVE TRACK 07 AUDIO TITLE "Flash" PERFORMER "Green Velvet" REM COMPOSER "" INDEX 01 00:00:00FILE "08. DJ Rush - But It Really Doesn't Matter With Me Now.wav" WAVE TRACK 08 AUDIO TITLE "But It Really Doesn't Matter With Me Now" PERFORMER "DJ Rush" REM COMPOSER "" INDEX 01 00:00:00FILE "09. DJ Boris - Apacalypse.wav" WAVE TRACK 09 AUDIO TITLE "Apacalypse" PERFORMER "DJ Boris" REM COMPOSER "" INDEX 01 00:00:00FILE "10. DJ Sneak - Percolate This Track.wav" WAVE TRACK 10 AUDIO TITLE "Percolate This Track" PERFORMER "DJ Sneak" REM COMPOSER "" INDEX 01 00:00:00FILE "11. Paul Johnson - Traction.wav" WAVE TRACK 11 AUDIO TITLE "Traction" PERFORMER "Paul Johnson" REM COMPOSER "" INDEX 01 00:00:00FILE "12. Boo Williams - Midnight Express.wav" WAVE TRACK 12 AUDIO TITLE "Midnight Express" PERFORMER "Boo Williams" REM COMPOSER "" INDEX 01 00:00:00FILE "13. Tim Harper - Return of the Dragon.wav" WAVE TRACK 13 AUDIO TITLE "Return of the Dragon" PERFORMER "Tim Harper" REM COMPOSER "" INDEX 01 00:00:00FILE "14. Green Velvet - Preacher Man.wav" WAVE TRACK 14 AUDIO TITLE "Preacher Man" PERFORMER "Green Velvet" REM COMPOSER "" INDEX 01 00:00:00FILE "15. Paul Johnson - The Music in Me.wav" WAVE TRACK 15 AUDIO TITLE "The Music in Me" PERFORMER "Paul Johnson" REM COMPOSER "" INDEX 01 00:00:00


[chi5o.com]_t_2472373.torrent
Торрент: Зарегистрирован ·  [ 2019-01-07 11:59 ] ·  a11ada61942b9c4955e44d439918bea835700fa7

14 KB

Статус: проверено
Скачан: 0 раз
Размер: 617 MB
Оценка: 
(Голосов: 0)
Сказали спасибо: 0  Спасибо
Похожие темы
[Профиль]    [ЛС]
Показать сообщения:    
Ответить на тему

Текущее время: Сегодня 07:41

Часовой пояс: GMT + 7



Вы не можете начинать темы
Вы не можете отвечать на сообщения
Вы не можете редактировать свои сообщения
Вы не можете удалять свои сообщения
Вы не можете голосовать в опросах
Вы не можете прикреплять файлы к сообщениям
Вы можете скачивать файлы


პერსონალური კომპიუტერები, ნოუთბუქები, ტაბლეტები | Zu verschenken Tauschen | Watch movie