(House) [CDM] Big T - Ice Cube - 2004, FLAC (tracks+.cue), lossless

Ответить на тему
Статистика раздачи [Обновить пиров]
Размер:  226 MB   |    Зарегистрирован:  1 месяц 11 дней   |    Скачан:  0 раз

Полного источника не было: Никогда

 
   
 
 
 
Автор Сообщение

chi5o.com

Создавать темы 07-Янв-2019 12:29

[Цитировать]

Big T / Ice Cube
Жанр: House
Носитель: CDM
Год издания: 2004
Издатель (лейбл): Low Spirit Recordings
Номер по каталогу: 82876 60479 2
Аудиокодек: FLAC (*.flac)
Тип рипа: tracks+.cue
Битрейт аудио: lossless
Продолжительность: 31:12
Источник (релизер): свой рип
Наличие сканов в содержимом раздачи: да
Треклист:
01. Big T - Ice Cube (Short) (3:39)
02. Big T - Ice Cube (Original Mix) (6:15)
03. Big T - Ice Cube (WestBam Remix) (7:03)
04. Big T - Ice Cube (Big Mix) (7:47)
05. Big T - Ice Cube (T's Choicemix) (6:28)

Лог создания рипа

Exact Audio Copy V1.3 from 2. September 2016
EAC extraction logfile from 18. December 2018, 8:42
Big T / Ice Cube
Used drive : ASUS DRW-24B5ST Adapter: 6 ID: 0
Read mode : SecureUtilize accurate stream : YesDefeat audio cache : YesMake use of C2 pointers : No
Read offset correction : 6Overread into Lead-In and Lead-Out : NoFill up missing offset samples with silence : YesDelete leading and trailing silent blocks : NoNull samples used in CRC calculations : YesUsed interface : Installed external ASPI interfaceGap handling : Appended to previous track
Used output format : User Defined EncoderSelected bitrate : 128 kBit/sQuality : HighAdd ID3 tag : NoCommand line compressor : D:\flac-1.3.2-win\win64\flac.exeAdditional command line options : -8 -V -T "ARTIST=%artist%" -T "TITLE=%title%" -T "ALBUM=%albumtitle%" -T "DATE=%year%" -T "TRACKNUMBER=%tracknr%" -T "GENRE=%genre%" -T "COMMENT=ripped by Andy aka yetiisyou" %source%
TOC of the extracted CD
Track | Start | Length | Start sector | End sector --------------------------------------------------------- 1 | 0:00.00 | 3:38.61 | 0 | 16410 2 | 3:38.61 | 6:15.30 | 16411 | 44565 3 | 9:54.16 | 7:03.31 | 44566 | 76321 4 | 16:57.47 | 7:47.00 | 76322 | 111346 5 | 24:44.47 | 6:27.48 | 111347 | 140419
Track 1
Filename E:\!Ripped by Andy aka yetiisyou\Big T - Ice Cube [82876 60479 2] [2004]\01. Big T - Ice Cube (Short).wav
Pre-gap length 0:00:02.00
Peak level 72.5 % Extraction speed 2.8 X Track quality 99.9 % Test CRC 9CF8416B Copy CRC 9CF8416B Accurately ripped (confidence 1) [0F061B9A] (AR v2) Copy OK
Track 2
Filename E:\!Ripped by Andy aka yetiisyou\Big T - Ice Cube [82876 60479 2] [2004]\02. Big T - Ice Cube (Original Mix).wav
Pre-gap length 0:00:00.58
Peak level 72.5 % Extraction speed 4.1 X Track quality 100.0 % Test CRC A8C9BE71 Copy CRC A8C9BE71 Accurately ripped (confidence 1) [28F6685B] (AR v2) Copy OK
Track 3
Filename E:\!Ripped by Andy aka yetiisyou\Big T - Ice Cube [82876 60479 2] [2004]\03. Big T - Ice Cube (WestBam Remix).wav
Pre-gap length 0:00:00.68
Peak level 99.0 % Extraction speed 4.8 X Track quality 100.0 % Test CRC 78F80E85 Copy CRC 78F80E85 Accurately ripped (confidence 1) [AF1FC5D6] (AR v2) Copy OK
Track 4
Filename E:\!Ripped by Andy aka yetiisyou\Big T - Ice Cube [82876 60479 2] [2004]\04. Big T - Ice Cube (Big Mix).wav
Pre-gap length 0:00:00.48
Peak level 67.7 % Extraction speed 5.4 X Track quality 100.0 % Test CRC 7B9DE24C Copy CRC 7B9DE24C Accurately ripped (confidence 1) [E7696AB2] (AR v2) Copy OK
Track 5
Filename E:\!Ripped by Andy aka yetiisyou\Big T - Ice Cube [82876 60479 2] [2004]\05. Big T - Ice Cube (T's Choicemix).wav
Pre-gap length 0:00:00.72
Peak level 70.1 % Extraction speed 5.7 X Track quality 100.0 % Test CRC 6DF07A61 Copy CRC 6DF07A61 Accurately ripped (confidence 1) [D9A5FBED] (AR v2) Copy OK
All tracks accurately ripped
No errors occurred
End of status report
---- CUETools DB Plugin V2.1.6
[CTDB TOCID: .hjgDCIUhG9NWoPbjE4f1wuwR.0-] foundSubmit result: .hjgDCIUhG9NWoPbjE4f1wuwR.0- has been confirmedTrack | CTDB Status 1 | (2/2) Accurately ripped 2 | (2/2) Accurately ripped 3 | (2/2) Accurately ripped 4 | (2/2) Accurately ripped 5 | (2/2) Accurately ripped
==== Log checksum E82397A96F10351BE83F8F279163AF58A2095412244B6CC0999C0CABA8582C16 ====

Содержание индексной карты (.CUE)

REM DATE 2004REM DISCID 38075005REM COMMENT "ExactAudioCopy v1.3"CATALOG 0828766047929PERFORMER "Big T"TITLE "Ice Cube"REM COMPOSER ""FILE "01. Big T - Ice Cube (Short).wav" WAVE TRACK 01 AUDIO TITLE "Ice Cube (Short)" PERFORMER "Big T" REM COMPOSER "" ISRC DEE190400121 INDEX 01 00:00:00 TRACK 02 AUDIO TITLE "Ice Cube (Original Mix)" PERFORMER "Big T" REM COMPOSER "" ISRC DEE190400058 INDEX 00 03:38:03FILE "02. Big T - Ice Cube (Original Mix).wav" WAVE INDEX 01 00:00:00 TRACK 03 AUDIO TITLE "Ice Cube (WestBam Remix)" PERFORMER "Big T" REM COMPOSER "" ISRC DEE190400061 INDEX 00 06:14:37FILE "03. Big T - Ice Cube (WestBam Remix).wav" WAVE INDEX 01 00:00:00 TRACK 04 AUDIO TITLE "Ice Cube (Big Mix)" PERFORMER "Big T" REM COMPOSER "" ISRC DEE190400060 INDEX 00 07:02:58FILE "04. Big T - Ice Cube (Big Mix).wav" WAVE INDEX 01 00:00:00 TRACK 05 AUDIO TITLE "Ice Cube (T's Choicemix)" PERFORMER "Big T" REM COMPOSER "" ISRC DEE190400059 INDEX 00 07:46:03FILE "05. Big T - Ice Cube (T's Choicemix).wav" WAVE INDEX 01 00:00:00


[chi5o.com]_t_5661566.torrent
Торрент: Зарегистрирован ·  [ 2019-01-07 11:59 ] ·  8de854790ee2cddcb4546ff1a4e4b25ab636a31c

19 KB

Статус: проверено
Скачан: 0 раз
Размер: 226 MB
Оценка: 
(Голосов: 0)
Сказали спасибо: 0  Спасибо
Похожие темы
[Профиль]    [ЛС]
Показать сообщения:    
Ответить на тему

Текущее время: Сегодня 07:44

Часовой пояс: GMT + 7



Вы не можете начинать темы
Вы не можете отвечать на сообщения
Вы не можете редактировать свои сообщения
Вы не можете удалять свои сообщения
Вы не можете голосовать в опросах
Вы не можете прикреплять файлы к сообщениям
Вы можете скачивать файлы


Read more | For Shame | Darun Tantiwichitwech