(House) [CDM] DJ S.P.U.D. - Set It Off - 2002, FLAC (tracks+.cue), lossless

Ответить на тему
Статистика раздачи [Обновить пиров]
Размер:  138 MB   |    Зарегистрирован:  1 месяц 11 дней   |    Скачан:  0 раз

Полного источника не было: Никогда

 
   
 
 
 
Автор Сообщение

chi5o.com

Создавать темы 07-Янв-2019 12:29

[Цитировать]

DJ S.P.U.D. / Set It Off
Жанр: House
Носитель: CDM
Год издания: 2002
Издатель (лейбл): Superstar Recordings
Номер по каталогу: 0193832
Аудиокодек: FLAC (*.flac)
Тип рипа: tracks+.cue
Битрейт аудио: lossless
Продолжительность: 19:41
Источник (релизер): свой рип
Наличие сканов в содержимом раздачи: да
Треклист:
01. DJ S.P.U.D. - Set It Off (Radio Mix) (2:59)
02. DJ S.P.U.D. - Set It Off (Original Mix) (8:08)
03. DJ S.P.U.D. - Evan (8:34)

Лог создания рипа

Exact Audio Copy V1.3 from 2. September 2016
EAC extraction logfile from 18. December 2018, 19:25
DJ S.P.U.D. / Set It Off
Used drive : ASUS DRW-24B5ST Adapter: 6 ID: 0
Read mode : SecureUtilize accurate stream : YesDefeat audio cache : YesMake use of C2 pointers : No
Read offset correction : 6Overread into Lead-In and Lead-Out : NoFill up missing offset samples with silence : YesDelete leading and trailing silent blocks : NoNull samples used in CRC calculations : YesUsed interface : Installed external ASPI interfaceGap handling : Appended to previous track
Used output format : User Defined EncoderSelected bitrate : 128 kBit/sQuality : HighAdd ID3 tag : NoCommand line compressor : D:\flac-1.3.2-win\win64\flac.exeAdditional command line options : -8 -V -T "ARTIST=%artist%" -T "TITLE=%title%" -T "ALBUM=%albumtitle%" -T "DATE=%year%" -T "TRACKNUMBER=%tracknr%" -T "GENRE=%genre%" -T "COMMENT=ripped by Andy aka yetiisyou" %source%
TOC of the extracted CD
Track | Start | Length | Start sector | End sector --------------------------------------------------------- 1 | 0:00.00 | 2:59.20 | 0 | 13444 2 | 2:59.20 | 8:07.42 | 13445 | 50011 3 | 11:06.62 | 8:34.20 | 50012 | 88581
Track 1
Filename E:\!Ripped by Andy aka yetiisyou\DJ S.P.U.D. - Set It Off [0193832] [2002]\01. DJ S.P.U.D. - Set It Off (Radio Mix).wav
Pre-gap length 0:00:02.00
Peak level 96.9 % Extraction speed 1.3 X Track quality 99.9 % Test CRC F47E8E5B Copy CRC F47E8E5B Accurately ripped (confidence 9) [76E1B2DE] (AR v2) Copy OK
Track 2
Filename E:\!Ripped by Andy aka yetiisyou\DJ S.P.U.D. - Set It Off [0193832] [2002]\02. DJ S.P.U.D. - Set It Off (Original Mix).wav
Pre-gap length 0:00:01.35
Peak level 96.9 % Extraction speed 2.4 X Track quality 100.0 % Test CRC 10BE4699 Copy CRC 10BE4699 Accurately ripped (confidence 8) [0A0E7221] (AR v2) Copy OK
Track 3
Filename E:\!Ripped by Andy aka yetiisyou\DJ S.P.U.D. - Set It Off [0193832] [2002]\03. DJ S.P.U.D. - Evan.wav
Pre-gap length 0:00:00.63
Peak level 99.3 % Extraction speed 1.9 X Track quality 99.9 % Test CRC B134A2B3 Copy CRC B134A2B3 Accurately ripped (confidence 8) [4421C6E2] (AR v2) Copy OK
All tracks accurately ripped
No errors occurred
End of status report
---- CUETools DB Plugin V2.1.6
[CTDB TOCID: 1xfWk9_OQ4905Lzwp4lMp_b5c10-] foundSubmit result: 1xfWk9_OQ4905Lzwp4lMp_b5c10- has been confirmedTrack | CTDB Status 1 | (22/22) Accurately ripped 2 | (22/22) Accurately ripped 3 | (22/22) Accurately ripped
==== Log checksum 5CEC0F12B3AFBE131C7A112FAAFE4DDB2EE7E1628E731B54038028CF2964B677 ====

Содержание индексной карты (.CUE)

REM GENRE DanceREM DATE 2002REM DISCID 20049D03REM COMMENT "ExactAudioCopy v1.3"PERFORMER "DJ S.P.U.D."TITLE "Set It Off"REM COMPOSER ""FILE "01. DJ S.P.U.D. - Set It Off (Radio Mix).wav" WAVE TRACK 01 AUDIO TITLE "Set It Off (Radio Mix)" PERFORMER "DJ S.P.U.D." REM COMPOSER "" INDEX 01 00:00:00 TRACK 02 AUDIO TITLE "Set It Off (Original Mix)" PERFORMER "DJ S.P.U.D." REM COMPOSER "" INDEX 00 02:57:61FILE "02. DJ S.P.U.D. - Set It Off (Original Mix).wav" WAVE INDEX 01 00:00:00 TRACK 03 AUDIO TITLE "Evan" PERFORMER "DJ S.P.U.D." REM COMPOSER "" INDEX 00 08:06:54FILE "03. DJ S.P.U.D. - Evan.wav" WAVE INDEX 01 00:00:00


[chi5o.com]_t_5661567.torrent
Торрент: Зарегистрирован ·  [ 2019-01-07 11:59 ] ·  07c30ce2a0310006cfc5300a3e1d3169dcfc17d5

12 KB

Статус: проверено
Скачан: 0 раз
Размер: 138 MB
Оценка: 
(Голосов: 0)
Сказали спасибо: 0  Спасибо
Похожие темы
[Профиль]    [ЛС]
Показать сообщения:    
Ответить на тему

Текущее время: Сегодня 08:24

Часовой пояс: GMT + 7



Вы не можете начинать темы
Вы не можете отвечать на сообщения
Вы не можете редактировать свои сообщения
Вы не можете удалять свои сообщения
Вы не можете голосовать в опросах
Вы не можете прикреплять файлы к сообщениям
Вы можете скачивать файлы


Rave - C Dosyası (Teaser ) | Download APK | cpasbien 2019