(House) [CD] Steve Lawler - Rise \'In - 2000, FLAC (tracks+.cue), lossless

Ответить на тему
Статистика раздачи [Обновить пиров]
Размер:  195 MB   |    Зарегистрирован:  1 месяц 11 дней   |    Скачан:  0 раз

Полного источника не было: Никогда

 
   
 
 
 
Автор Сообщение

chi5o.com

Создавать темы 07-Янв-2019 12:29

[Цитировать]

Steve Lawler - Rise 'In
Жанр: House, Trance
Носитель: CD
Страна-производитель диска (релиза): UK
Год издания: 2000
Издатель (лейбл): Bedrock Records
Номер по каталогу: BEDRCDS 008
Аудиокодек: FLAC (*.flac)
Тип рипа: tracks+.cue
Битрейт аудио: lossless
Продолжительность: 00:20:00
Источник (релизер): собственный рип
Наличие сканов в содержимом раздачи: да
Треклист:
01. Rise 'In (Radio Edit) (3:23)
02. Rise 'In (Original Vocal Mix Edit) (6:35)
03. Rise 'In (Nalin & Kane Vocal Mix Edit) (10:02)--

Лог создания рипа

Exact Audio Copy V1.3 from 2. September 2016
EAC extraction logfile from 24. December 2018, 14:38
Steve Lawler / Rise 'In
Used drive : SlimtypeES1 Adapter: 1 ID: 0
Read mode : SecureUtilize accurate stream : YesDefeat audio cache : YesMake use of C2 pointers : No
Read offset correction : 6Overread into Lead-In and Lead-Out : NoFill up missing offset samples with silence : YesDelete leading and trailing silent blocks : NoNull samples used in CRC calculations : YesUsed interface : Native Win32 interface for Win NT & 2000Gap handling : Appended to previous track
Used output format : User Defined EncoderSelected bitrate : 1024 kBit/sQuality : HighAdd ID3 tag : NoCommand line compressor : D:\Program Files\EAC_1.3\FLAC\FLAC.EXEAdditional command line options : -V -8 -T "Genre=%genre%" -T "Artist=%artist%" -T "Title=%title%" -T "Album=%albumtitle%" -T "Date=%year%" -T "Tracknumber=%tracknr%" -T "Comment=%comment%" %source%
TOC of the extracted CD
Track | Start | Length | Start sector | End sector --------------------------------------------------------- 1 | 0:00.00 | 3:23.35 | 0 | 15259 2 | 3:23.35 | 6:34.62 | 15260 | 44871 3 | 9:58.22 | 10:01.58 | 44872 | 90004
Track 1
Filename C:\01. Steve Lawler - Rise 'In (Radio Edit).wav
Pre-gap length 0:00:02.00
Peak level 99.8 % Extraction speed 2.6 X Track quality 100.0 % Test CRC 2B957670 Copy CRC 2B957670 Accurately ripped (confidence 2) [D5B67C2E] (AR v2) Copy OK
Track 2
Filename C:\02. Steve Lawler - Rise 'In (Original Vocal Mix Edit).wav
Pre-gap length 0:00:01.56
Peak level 99.8 % Extraction speed 3.2 X Track quality 100.0 % Test CRC 0A5D9BB4 Copy CRC 0A5D9BB4 Accurately ripped (confidence 2) [C6108935] (AR v2) Copy OK
Track 3
Filename C:\03. Steve Lawler - Rise 'In (Nalin & Kane Vocal Mix Edit).wav
Pre-gap length 0:00:01.56
Peak level 99.8 % Extraction speed 3.9 X Track quality 100.0 % Test CRC 111C3A67 Copy CRC 111C3A67 Accurately ripped (confidence 2) [0615EDB5] (AR v2) Copy OK
All tracks accurately ripped
No errors occurred
End of status report
==== Log checksum B09578D115B2E71BE6A280BA07676F3A7F2511396AF7A87B73253E86A706F0A1 ====

Содержание индексной карты (.CUE)

REM GENRE TranceREM DATE 2000REM DISCID 0F04B003REM COMMENT "ExactAudioCopy v1.3"PERFORMER "Steve Lawler"TITLE "Rise 'In"REM COMPOSER ""FILE "01. Steve Lawler - Rise 'In (Radio Edit).wav" WAVE TRACK 01 AUDIO TITLE "Rise 'In (Radio Edit)" PERFORMER "Steve Lawler" REM COMPOSER "" INDEX 01 00:00:00 TRACK 02 AUDIO TITLE "Rise 'In (Original Vocal Mix Edit)" PERFORMER "Steve Lawler" REM COMPOSER "" INDEX 00 03:21:54FILE "02. Steve Lawler - Rise 'In (Original Vocal Mix Edit).wav" WAVE INDEX 01 00:00:00 TRACK 03 AUDIO TITLE "Rise 'In (Nalin & Kane Vocal Mix Edit)" PERFORMER "Steve Lawler" REM COMPOSER "" INDEX 00 06:33:06FILE "03. Steve Lawler - Rise 'In (Nalin & Kane Vocal Mix Edit).wav" WAVE INDEX 01 00:00:00
--


[chi5o.com]_t_5664332.torrent
Торрент: Зарегистрирован ·  [ 2019-01-07 11:59 ] ·  8ce16dd4da5765619eaac17aa867f8f3b8fc2c46

16 KB

Статус: проверено
Скачан: 0 раз
Размер: 195 MB
Оценка: 
(Голосов: 0)
Сказали спасибо: 0  Спасибо
Похожие темы
[Профиль]    [ЛС]
Показать сообщения:    
Ответить на тему

Текущее время: Сегодня 08:23

Часовой пояс: GMT + 7



Вы не можете начинать темы
Вы не можете отвечать на сообщения
Вы не можете редактировать свои сообщения
Вы не можете удалять свои сообщения
Вы не можете голосовать в опросах
Вы не можете прикреплять файлы к сообщениям
Вы можете скачивать файлы


Időminisztérium | Boku no Hero Academia 138 | Desiree Akhavan