(Progressive House, House, Tribal House) [CD] VA - The White Party III - Continuous Mix By DJ David Knapp - 1998, FLAC (tracks+.cue), lossless

Ответить на тему
Статистика раздачи [Обновить пиров]
Размер:  423 MB   |    Зарегистрирован:  1 месяц 11 дней   |    Скачан:  0 раз

Полного источника не было: Никогда

 
   
 
 
 
Автор Сообщение

chi5o.com

Создавать темы 07-Янв-2019 12:29

[Цитировать]

The White Party III - Continuous Mix By DJ David Knapp
Жанр: Progressive House, House, Tribal House
Носитель: CD
Страна-производитель диска (релиза): США
Год издания: 1998
Издатель (лейбл): Centaur Music, Inc.
Номер по каталогу: 650773000624
Страна исполнителя (группы): VA
Аудиокодек: FLAC (*.flac)
Тип рипа: tracks+.cue
Битрейт аудио: lossless
Продолжительность: 1:13:39
Источник (релизер): Собственный рип
Наличие сканов в содержимом раздачи: нет
Треклист:
01. Judy Torres - Back In Your Arms (Brinsley Evans 12" Mix) [7:50]
02. Kristine W - Land Of The Living (Junior Vasquez's New Vocal Mix) [5:13]
03. Joi Cardwell - Found Love (Global Village Vocal Mix) [8:52]
04. Knight Breed - Your Love Is Taking Me Over (Anthem Mix) [7:45]
05. Lisa Stansfield - Never Gonna Fall (Victor Calderone Mix) [5:14]
06. Veronica - Let Me Go...Release Me (Johnny Vicious Club Mix) [7:18]
07. Hannah Jones - What The Child Needs (Jonathan Peter's Sound Factory Vocal Anthem) [6:37]
08. Hypertrophy - Just Come Back To Me (Original Extended Mix) [5:23]
09. Sunscreem - Catch (SPS Cained Vocal Mix) [7:57]
10. DJ Dado - Give Me Love (Antiqua Club Mix) [5:15]
11. UBM - Lovin' You (Curtis & Moore Velvet Vocal Mix) [6:17]

Лог создания рипа

Exact Audio Copy V1.3 from 2. September 2016
EAC extraction logfile from 27. December 2018, 16:48
VA / The White Party III - Continuous Mix By DJ David Knapp
Used drive : Optiarc DVD RW AD-7710H Adapter: 1 ID: 0
Read mode : SecureUtilize accurate stream : YesDefeat audio cache : YesMake use of C2 pointers : No
Read offset correction : 48Overread into Lead-In and Lead-Out : NoFill up missing offset samples with silence : YesDelete leading and trailing silent blocks : NoNull samples used in CRC calculations : YesUsed interface : Native Win32 interface for Win NT & 2000Gap handling : Appended to previous track
Used output format : User Defined EncoderSelected bitrate : 1024 kBit/sQuality : HighAdd ID3 tag : NoCommand line compressor : C:\Program Files (x86)\Exact Audio Copy\FLAC\FLAC.EXEAdditional command line options : -6 -V -T "ARTIST=%artist%" -T "TITLE=%title%" -T "ALBUM=%albumtitle%" -T "DATE=%year%" -T "TRACKNUMBER=%tracknr%" -T "GENRE=%genre%" -T "COMMENT=%comment%" -T "BAND=%albuminterpret%" -T "ALBUMARTIST=%albuminterpret%" -T "COMPOSER=%composer%" %haslyrics%--tag-from-file=LYRICS="%lyricsfile%"%haslyrics% -T "DISCNUMBER=%cdnumber%" -T "TOTALDISCS=%totalcds%" -T "TOTALTRACKS=%numtracks%" %hascover%--picture="%coverfile%"%hascover% %source% -o %dest%
TOC of the extracted CD
Track | Start | Length | Start sector | End sector --------------------------------------------------------- 1 | 0:00.00 | 7:50.07 | 0 | 35256 2 | 7:50.07 | 5:12.55 | 35257 | 58711 3 | 13:02.62 | 8:51.63 | 58712 | 98599 4 | 21:54.50 | 7:44.67 | 98600 | 133466 5 | 29:39.42 | 5:14.20 | 133467 | 157036 6 | 34:53.62 | 7:17.40 | 157037 | 189851 7 | 42:11.27 | 6:37.18 | 189852 | 219644 8 | 48:48.45 | 5:22.72 | 219645 | 243866 9 | 54:11.42 | 7:56.65 | 243867 | 279631 10 | 62:08.32 | 5:14.43 | 279632 | 303224 11 | 67:23.00 | 6:16.42 | 303225 | 331466
Track 1
Filename C:\Users\José e Rosaura\Desktop\VA - The White Party III - Continuous Mix By DJ David Knapp\01. Judy Torres - Back In Your Arms (Brinsley Evans 12'' Mix).wav
Pre-gap length 0:00:02.00
Peak level 99.6 % Extraction speed 3.1 X Track quality 99.9 % Test CRC 34DF253C Copy CRC 34DF253C Accurately ripped (confidence 2) [2D29620C] (AR v2) Copy OK
Track 2
Filename C:\Users\José e Rosaura\Desktop\VA - The White Party III - Continuous Mix By DJ David Knapp\02. Kristine W - Land Of The Living (Junior Vasquez's New Vocal Mix).wav
Peak level 99.6 % Extraction speed 3.2 X Track quality 99.9 % Test CRC 0F4C0433 Copy CRC 0F4C0433 Accurately ripped (confidence 2) [CD320A19] (AR v2) Copy OK
Track 3
Filename C:\Users\José e Rosaura\Desktop\VA - The White Party III - Continuous Mix By DJ David Knapp\03. Joi Cardwell - Found Love (Global Village Vocal Mix).wav
Peak level 99.6 % Extraction speed 4.0 X Track quality 99.9 % Test CRC 3DF53A4B Copy CRC 3DF53A4B Accurately ripped (confidence 2) [995961F4] (AR v2) Copy OK
Track 4
Filename C:\Users\José e Rosaura\Desktop\VA - The White Party III - Continuous Mix By DJ David Knapp\04. Knight Breed - Your Love is Taking Me Over (Anthem Mix).wav
Peak level 99.6 % Extraction speed 4.8 X Track quality 100.0 % Test CRC FEA79B5C Copy CRC FEA79B5C Accurately ripped (confidence 2) [E3BEBC9D] (AR v2) Copy OK
Track 5
Filename C:\Users\José e Rosaura\Desktop\VA - The White Party III - Continuous Mix By DJ David Knapp\05. Lisa Stansfield - Never Gonna Fall (Victor Calderone Mix).wav
Peak level 99.6 % Extraction speed 4.9 X Track quality 100.0 % Test CRC 3A82D86B Copy CRC 3A82D86B Accurately ripped (confidence 2) [DA119013] (AR v2) Copy OK
Track 6
Filename C:\Users\José e Rosaura\Desktop\VA - The White Party III - Continuous Mix By DJ David Knapp\06. Veronica - Let Me Go... Release Me (Johnny Vicious Club Mix).wav
Peak level 99.6 % Extraction speed 5.4 X Track quality 100.0 % Test CRC 607C2AEB Copy CRC 607C2AEB Accurately ripped (confidence 2) [0635C0C8] (AR v2) Copy OK
Track 7
Filename C:\Users\José e Rosaura\Desktop\VA - The White Party III - Continuous Mix By DJ David Knapp\07. Hannah Jones - What the Child Needs (Jonathan Peter's Sound Factory Vocal Anthem).wav
Peak level 99.6 % Extraction speed 5.7 X Track quality 100.0 % Test CRC 9892C7C0 Copy CRC 9892C7C0 Accurately ripped (confidence 2) [5FDF294F] (AR v2) Copy OK
Track 8
Filename C:\Users\José e Rosaura\Desktop\VA - The White Party III - Continuous Mix By DJ David Knapp\08. Hypertrophy - Just Come Back to Me Just Come Back To Me (Original Extended Mix).wav
Peak level 99.6 % Extraction speed 4.5 X Track quality 99.9 % Test CRC 537B1DAF Copy CRC 537B1DAF Accurately ripped (confidence 2) [4CDD5440] (AR v2) Copy OK
Track 9
Filename C:\Users\José e Rosaura\Desktop\VA - The White Party III - Continuous Mix By DJ David Knapp\09. Sunscreem - Catch (SPS Cained Vocal Mix).wav
Peak level 99.6 % Extraction speed 2.0 X Track quality 99.6 % Test CRC A02081FF Copy CRC A02081FF Accurately ripped (confidence 2) [7B4F536A] (AR v2) Copy OK
Track 10
Filename C:\Users\José e Rosaura\Desktop\VA - The White Party III - Continuous Mix By DJ David Knapp\10. DJ Dado feat. Michelle Weeks - Give Me Love (Antiqua Club Mix).wav
Suspicious position 0:00:00
Peak level 99.6 % Extraction speed 1.3 X Track quality 99.4 % Test CRC FD22E66E Copy CRC FD22E66E Accurately ripped (confidence 2) [352701B2] (AR v2) Copy finished
Track 11
Filename C:\Users\José e Rosaura\Desktop\VA - The White Party III - Continuous Mix By DJ David Knapp\11. UBM - Lovin' You (Curtis & Moore Velvet Vocal Mix).wav
Peak level 99.6 % Extraction speed 3.0 X Track quality 99.7 % Test CRC B7C3ACC4 Copy CRC B7C3ACC4 Accurately ripped (confidence 2) [BD387E1A] (AR v2) Copy OK
All tracks accurately ripped
There were errors
End of status report
---- CUETools DB Plugin V2.1.6
[CTDB TOCID: uN_TcpTOclNThUpdU6nknPNxvbY-] foundSubmit result: already submittedTrack | CTDB Status 1 | (4/4) Accurately ripped 2 | (4/4) Accurately ripped 3 | (4/4) Accurately ripped 4 | (4/4) Accurately ripped 5 | (4/4) Accurately ripped 6 | (4/4) Accurately ripped 7 | (4/4) Accurately ripped 8 | (4/4) Accurately ripped 9 | (4/4) Accurately ripped 10 | (4/4) Accurately ripped 11 | (4/4) Accurately ripped
==== Log checksum CBB28209094880083C62B0BA0282DD45D29A040561EA1D5C402ACB3358AB9AD5 ====

Содержание индексной карты (.CUE)

REM GENRE TribalREM DATE 1998REM DISCID 9011430BREM COMMENT "ExactAudioCopy v1.3"PERFORMER "Various"TITLE "The White Party III - Continuous Mix By DJ David Knapp"REM COMPOSER ""FILE "01. Judy Torres - Back In Your Arms (Brinsley Evans 12'' Mix).wav" WAVE TRACK 01 AUDIO TITLE "Judy Torres - Back In Your Arms (Brinsley Evans 12'' Mix)" PERFORMER "Judy Torres" REM COMPOSER "" INDEX 01 00:00:00FILE "02. Kristine W - Land Of The Living (Junior Vasquez's New Vocal Mix).wav" WAVE TRACK 02 AUDIO TITLE "Kristine W - Land Of The Living (Junior Vasquez's New Vocal Mix)" PERFORMER "Kristine W" REM COMPOSER "" INDEX 01 00:00:00FILE "03. Joi Cardwell - Found Love (Global Village Vocal Mix).wav" WAVE TRACK 03 AUDIO TITLE "Joi Cardwell - Found Love (Global Village Vocal Mix)" PERFORMER "Joi Cardwell" REM COMPOSER "" INDEX 01 00:00:00FILE "04. Knight Breed - Your Love is Taking Me Over (Anthem Mix).wav" WAVE TRACK 04 AUDIO TITLE "Knight Breed - Your Love is Taking Me Over (Anthem Mix)" PERFORMER "Knight Breed" REM COMPOSER "" INDEX 01 00:00:00FILE "05. Lisa Stansfield - Never Gonna Fall (Victor Calderone Mix).wav" WAVE TRACK 05 AUDIO TITLE "Lisa Stansfield - Never Gonna Fall (Victor Calderone Mix)" PERFORMER "Lisa Stansfield" REM COMPOSER "" INDEX 01 00:00:00FILE "06. Veronica - Let Me Go... Release Me (Johnny Vicious Club Mix).wav" WAVE TRACK 06 AUDIO TITLE "Veronica - Let Me Go... Release Me (Johnny Vicious Club Mix)" PERFORMER "Veronica" REM COMPOSER "" INDEX 01 00:00:00FILE "07. Hannah Jones - What the Child Needs (Jonathan Peter's Sound Factory Vocal Anthem).wav" WAVE TRACK 07 AUDIO TITLE "Hannah Jones - What the Child Needs (Jonathan Peter's Sound Factory Vocal Ant..." PERFORMER "Hannah Jones" REM COMPOSER "" INDEX 01 00:00:00FILE "08. Hypertrophy - Just Come Back to Me Just Come Back To Me (Original Extended Mix).wav" WAVE TRACK 08 AUDIO TITLE "Hypertrophy - Just Come Back to Me Just Come Back To Me (Original Extended Mix)" PERFORMER "Hypertrophy" REM COMPOSER "" INDEX 01 00:00:00FILE "09. Sunscreem - Catch (SPS Cained Vocal Mix).wav" WAVE TRACK 09 AUDIO TITLE "Sunscreem - Catch (SPS Cained Vocal Mix)" PERFORMER "Sunscreem" REM COMPOSER "" INDEX 01 00:00:00FILE "10. DJ Dado feat. Michelle Weeks - Give Me Love (Antiqua Club Mix).wav" WAVE TRACK 10 AUDIO TITLE "DJ Dado feat. Michelle Weeks - Give Me Love (Antiqua Club Mix)" PERFORMER "DJ Dado" REM COMPOSER "" INDEX 01 00:00:00FILE "11. UBM - Lovin' You (Curtis & Moore Velvet Vocal Mix).wav" WAVE TRACK 11 AUDIO TITLE "UBM - Lovin' You (Curtis & Moore Velvet Vocal Mix)" PERFORMER "Lovin' You" REM COMPOSER "" INDEX 01 00:00:00

Лог проверки качества

-----------------------
DON'T MODIFY THIS FILE
-----------------------
PERFORMER: auCDtect Task Manager, ver. 1.6.0 RC1 build 1.6.0.1Copyright (c) 2008-2010 y-soft. All rights reservedhttp://y-soft.org
ANALYZER: auCDtect: CD records authenticity detector, version 0.8.2Copyright (c) 2004 Oleg Berngardt. All rights reserved.Copyright (c) 2004 Alexander Djourik. All rights reserved.
FILE: 01. Judy Torres - Back In Your Arms (Brinsley Evans 12'' Mix).flac Size: 48830460 Hash: 6EFF690484CC8441637C7E9A237EC87F Accuracy: -m0 Conclusion: CDDA 100% Signature: 1CBE1062332CD671FA011F9F97303D5ACA46B8CCFILE: 02. Kristine W - Land Of The Living (Junior Vasquez's New Vocal Mix).flac Size: 32932967 Hash: 65AF043453464D0CC0DA501AA46C4414 Accuracy: -m0 Conclusion: CDDA 100% Signature: CBAF20D239B57DF1666AEA459BEA6C7ACA2861BEFILE: 03. Joi Cardwell - Found Love (Global Village Vocal Mix).flac Size: 55628564 Hash: 1B0912B211576F63AACF890DDC64CAC7 Accuracy: -m0 Conclusion: CDDA 100% Signature: 2C1DA4AE500EBC576921345807682F8F2E035FEDFILE: 04. Knight Breed - Your Love is Taking Me Over (Anthem Mix).flac Size: 49059985 Hash: EE229856734D5EDA89B9036535006B3F Accuracy: -m0 Conclusion: CDDA 100% Signature: 2BD5483590145B64AC326AA1F7068BCFB0FC5D76FILE: 05. Lisa Stansfield - Never Gonna Fall (Victor Calderone Mix).flac Size: 31114583 Hash: 75AB36E016A31CDAF211EB6ABE91AD80 Accuracy: -m0 Conclusion: CDDA 100% Signature: ED3D5A7285963C5F9540D8A656615746101E3511FILE: 06. Veronica - Let Me Go... Release Me (Johnny Vicious Club Mix).flac Size: 44780869 Hash: EEB8ED083B368A3812676E3A4D01890A Accuracy: -m0 Conclusion: CDDA 100% Signature: 962DF9F5DAA1C84203EC9788CA93AD12392DABC8FILE: 07. Hannah Jones - What the Child Needs (Jonathan Peter's Sound Factory Vocal Anthem).flac Size: 40036700 Hash: 2F7E0D1DE82822358DD7BB7E00FD0DD5 Accuracy: -m0 Conclusion: CDDA 99% Signature: 77B3663CD0EBAC2D36F7BC5C77759896BA037AC2FILE: 08. Hypertrophy - Just Come Back to Me Just Come Back To Me (Original Extended Mix).flac Size: 29037032 Hash: 5A97C2F4A481A5F01CDB3CD228F22FCE Accuracy: -m0 Conclusion: CDDA 100% Signature: B7FD02F80391BDA53FA70DB4584E00A33E046816FILE: 09. Sunscreem - Catch (SPS Cained Vocal Mix).flac Size: 44567657 Hash: 6B808E0B969463BAADC314EFEDFD2AFD Accuracy: -m0 Conclusion: CDDA 100% Signature: 11189D0C88840DF93497DC1FEB3C03A0F822DCE8FILE: 10. DJ Dado feat. Michelle Weeks - Give Me Love (Antiqua Club Mix).flac Size: 30601922 Hash: 3C6D4E011441A77EE672F75B2D529EBB Accuracy: -m0 Conclusion: CDDA 100% Signature: 1E0D91742B4CEAFCB3C292819EC08808370A1266FILE: 11. UBM - Lovin' You (Curtis & Moore Velvet Vocal Mix).flac Size: 36639546 Hash: B9632BFE2C88B27A2CF3B6B657E60E9B Accuracy: -m0 Conclusion: CDDA 100% Signature: 390AF589F573479B3A7BDA95E534523238C2869D


[chi5o.com]_t_5646639.torrent
Торрент: Зарегистрирован ·  [ 2019-01-07 11:59 ] ·  7aa64c498991227780961f05617e594927de11a7

18 KB

Статус: проверено
Скачан: 0 раз
Размер: 423 MB
Оценка: 
(Голосов: 0)
Сказали спасибо: 0  Спасибо
Похожие темы
[Профиль]    [ЛС]
Показать сообщения:    
Ответить на тему

Текущее время: Сегодня 07:45

Часовой пояс: GMT + 7



Вы не можете начинать темы
Вы не можете отвечать на сообщения
Вы не можете редактировать свои сообщения
Вы не можете удалять свои сообщения
Вы не можете голосовать в опросах
Вы не можете прикреплять файлы к сообщениям
Вы можете скачивать файлы


あのこどこのこ うたった【SymaG】.mp3 | Ajouter au panier | Split.Lip.2019.1080p.AMZN.WEB-DL.DDP5.1.H264-CMRG[TGx]