(Electronic)(House) [CD] Alan Walker - Different World - 2018, FLAC (tracks+.cue), lossless

Ответить на тему
Статистика раздачи [Обновить пиров]
Размер:  308 MB   |    Зарегистрирован:  1 месяц 11 дней   |    Скачан:  0 раз

Полного источника не было: Никогда

 
   
 
 
 
Автор Сообщение

chi5o.com

Создавать темы 07-Янв-2019 12:29

[Цитировать]

Alan Walker / Different World
Жанр: Electronic, House
Носитель: CD
Страна-производитель диска (релиза): Europe
Год издания: 2018
Издатель (лейбл): MER
Номер по каталогу: 19075924062
Страна исполнителя (группы): UK
Аудиокодек: FLAC (*.flac)
Тип рипа: tracks+.cue
Битрейт аудио: lossless
Продолжительность: 00:43:01
Источник (релизер): собственный рип
Наличие сканов в содержимом раздачи: Только обложка альбома
Треклист:
01. Intro
02. Alan Walker feat. Sorana - Lost Control
03. Alan Walker feat. Julie Bergan - I Don't Wanna Go
04. Alan Walker feat. K-391 & Emelie Hollow - Lily
05. Alan Walker feat. Steve Aoki & Omar Noir - Lonely
06. Alan Walker feat. Trevor Guthrie - Do It All for You
07. Alan Walker feat. K-391 & Sofía Carson - Different World
08. Interlude
09. Sing Me to Sleep
10. Alan Walker feat. Noah Cyrus & Digital Farm Animals & Juliander - All Falls Down
11. Alan Walker feat. Au/Ra & Tomine Harket - Darkside
12. Alone
13. Alan Walker feat. Sophia Somajo - Diamond Heart
14. Faded (Interlude)
15. Faded

Лог создания рипа

Exact Audio Copy V1.3 from 2. September 2016
Отчёт EAC об извлечении, выполненном 30. декабря 2018, 13:30
Alan Walker / Different World
Дисковод: PLEXTOR DVDR PX-L890SA Adapter: 1 ID: 0
Режим чтения : ДостоверностьИспользование точного потока : ДаОтключение кэша аудио : ДаИспользование указателей C2 : Нет
Коррекция смещения при чтении : 6Способность читать области Lead-in и Lead-out : НетЗаполнение пропущенных сэмплов тишиной : ДаУдаление блоков с тишиной в начале и конце : НетПри вычислениях CRC использовались нулевые сэмплы : ДаИнтерфейс : Встроенный Win32-интерфейс для Win NT/2000Обработка зазоров : Добавлено к предыдущему треку
Выходной формат : Пользовательский кодировщикВыбранный битрейт : 896 kBit/sКачество : ВысокийДобавление ID3-тега : НетУтилита сжатия : C:\Program Files\Exact Audio Copy\Flac\flac.exeДополнительные параметры : -V -8 -T "Genre=%genre%" -T "Artist=%artist%" -T "Title=%title%" -T "Album=%albumtitle%" -T "Date=%year%" -T "Tracknumber=%tracknr%" -T "Comment=%comment%" %source%
TOC извлечённого CD
Трек | Старт | Длительность | Начальный сектор | Конечный сектор --------------------------------------------------------------------- 1 | 0:00.00 | 1:16.09 | 0 | 5708 2 | 1:16.09 | 3:42.24 | 5709 | 22382 3 | 4:58.33 | 2:41.50 | 22383 | 34507 4 | 7:40.08 | 3:15.63 | 34508 | 49195 5 | 10:55.71 | 3:36.04 | 49196 | 65399 6 | 14:32.00 | 2:54.42 | 65400 | 78491 7 | 17:26.42 | 3:22.68 | 78492 | 93709 8 | 20:49.35 | 1:19.08 | 93710 | 99642 9 | 22:08.43 | 3:07.60 | 99643 | 113727 10 | 25:16.28 | 3:18.66 | 113728 | 128643 11 | 28:35.19 | 3:31.51 | 128644 | 144519 12 | 32:06.70 | 2:40.32 | 144520 | 156551 13 | 34:47.27 | 4:00.25 | 156552 | 174576 14 | 38:47.52 | 0:41.65 | 174577 | 177716 15 | 39:29.42 | 3:32.08 | 177717 | 193624
Трек 1
Имя файла D:\Lossles\Alan Walker - Different World 2018\01 Intro.wav
Длина предзазора 0:00:02.00
Пиковый уровень 98.8 % Скорость извлечения 3.3 X Качество трека 100.0 % CRC теста ACBB3FCA CRC копии ACBB3FCA Трек не обнаружен в базе AccurateRip Копирование... OK
Трек 2
Имя файла D:\Lossles\Alan Walker - Different World 2018\02 Lost Control.wav
Пиковый уровень 98.8 % Скорость извлечения 4.6 X Качество трека 100.0 % CRC теста BF5F7F8F CRC копии BF5F7F8F Трек не обнаружен в базе AccurateRip Копирование... OK
Трек 3
Имя файла D:\Lossles\Alan Walker - Different World 2018\03 I Don't Wanna Go.wav
Пиковый уровень 98.8 % Скорость извлечения 3.8 X Качество трека 99.9 % CRC теста 8486F34D CRC копии 8486F34D Трек не обнаружен в базе AccurateRip Копирование... OK
Трек 4
Имя файла D:\Lossles\Alan Walker - Different World 2018\04 Lily.wav
Пиковый уровень 98.8 % Скорость извлечения 4.2 X Качество трека 99.9 % CRC теста 771E5275 CRC копии 771E5275 Трек не обнаружен в базе AccurateRip Копирование... OK
Трек 5
Имя файла D:\Lossles\Alan Walker - Different World 2018\05 Lonely.wav
Пиковый уровень 98.8 % Скорость извлечения 5.0 X Качество трека 100.0 % CRC теста 92DB140F CRC копии 92DB140F Трек не обнаружен в базе AccurateRip Копирование... OK
Трек 6
Имя файла D:\Lossles\Alan Walker - Different World 2018\06 Do It All for You.wav
Пиковый уровень 98.8 % Скорость извлечения 4.8 X Качество трека 100.0 % CRC теста 827B7E2C CRC копии 827B7E2C Трек не обнаружен в базе AccurateRip Копирование... OK
Трек 7
Имя файла D:\Lossles\Alan Walker - Different World 2018\07 Different World.wav
Пиковый уровень 97.5 % Скорость извлечения 5.0 X Качество трека 100.0 % CRC теста 216C63BD CRC копии 216C63BD Трек не обнаружен в базе AccurateRip Копирование... OK
Трек 8
Имя файла D:\Lossles\Alan Walker - Different World 2018\08 Interlude.wav
Пиковый уровень 98.8 % Скорость извлечения 4.0 X Качество трека 100.0 % CRC теста 621DAE94 CRC копии 621DAE94 Трек не обнаружен в базе AccurateRip Копирование... OK
Трек 9
Имя файла D:\Lossles\Alan Walker - Different World 2018\09 Sing Me to Sleep.wav
Пиковый уровень 96.3 % Скорость извлечения 4.9 X Качество трека 100.0 % CRC теста 5EB8B6F8 CRC копии 5EB8B6F8 Трек не обнаружен в базе AccurateRip Копирование... OK
Трек 10
Имя файла D:\Lossles\Alan Walker - Different World 2018\10 All Falls Down.wav
Пиковый уровень 93.9 % Скорость извлечения 4.3 X Качество трека 99.9 % CRC теста B09F26EE CRC копии B09F26EE Трек не обнаружен в базе AccurateRip Копирование... OK
Трек 11
Имя файла D:\Lossles\Alan Walker - Different World 2018\11 Darkside.wav
Пиковый уровень 96.5 % Скорость извлечения 5.1 X Качество трека 100.0 % CRC теста 70599C41 CRC копии 70599C41 Трек не обнаружен в базе AccurateRip Копирование... OK
Трек 12
Имя файла D:\Lossles\Alan Walker - Different World 2018\12 Alone.wav
Пиковый уровень 92.0 % Скорость извлечения 4.8 X Качество трека 100.0 % CRC теста B554A9E1 CRC копии B554A9E1 Трек не обнаружен в базе AccurateRip Копирование... OK
Трек 13
Имя файла D:\Lossles\Alan Walker - Different World 2018\13 Diamond Heart.wav
Пиковый уровень 98.8 % Скорость извлечения 4.5 X Качество трека 99.9 % CRC теста 0A36ED5C CRC копии 0A36ED5C Трек не обнаружен в базе AccurateRip Копирование... OK
Трек 14
Имя файла D:\Lossles\Alan Walker - Different World 2018\14 Faded (Interlude).wav
Пиковый уровень 94.8 % Скорость извлечения 3.1 X Качество трека 100.0 % CRC теста 448558A9 CRC копии 448558A9 Трек не обнаружен в базе AccurateRip Копирование... OK
Трек 15
Имя файла D:\Lossles\Alan Walker - Different World 2018\15 Faded.wav
Пиковый уровень 97.6 % Скорость извлечения 5.0 X Качество трека 100.0 % CRC теста DDE40C23 CRC копии DDE40C23 Трек не обнаружен в базе AccurateRip Копирование... OK
Ни одного трека нет в базе AccurateRip
Ошибок не произошло
Конец отчёта
---- CUETools DB Plugin V2.1.6
[CTDB TOCID: 1CaFkmKgE7n24e17QLd_eFDr2Ow-] foundSubmit result:Track | CTDB Status 1 | (11/11) Accurately ripped 2 | (11/11) Accurately ripped 3 | (11/11) Accurately ripped 4 | (11/11) Accurately ripped 5 | (11/11) Accurately ripped 6 | (11/11) Accurately ripped 7 | (11/11) Accurately ripped 8 | (11/11) Accurately ripped 9 | (11/11) Accurately ripped 10 | (11/11) Accurately ripped 11 | (11/11) Accurately ripped 12 | (11/11) Accurately ripped 13 | (11/11) Accurately ripped 14 | (11/11) Accurately ripped 15 | (11/11) Accurately ripped
==== Контрольная сумма отчёта 715D72F5075A63A350B03D95ED7EE95BDC64C4CBF39559BED00B1D51B7A560A1 ====

Содержание индексной карты (.CUE)

REM GENRE ElectronicREM DATE 2018REM DISCID C50A150FREM COMMENT "ExactAudioCopy v1.3"PERFORMER "Alan Walker"TITLE "Different World "REM COMPOSER ""FILE "01 Intro.wav" WAVE TRACK 01 AUDIO TITLE "Intro" PERFORMER "Alan Walker" REM COMPOSER "" INDEX 01 00:00:00FILE "02 Lost Control.wav" WAVE TRACK 02 AUDIO TITLE "Lost Control" PERFORMER "Alan Walker feat. Sorana" REM COMPOSER "" INDEX 01 00:00:00FILE "03 I Don't Wanna Go.wav" WAVE TRACK 03 AUDIO TITLE "I Don't Wanna Go" PERFORMER "Alan Walker feat. Julie Bergan" REM COMPOSER "" INDEX 01 00:00:00FILE "04 Lily.wav" WAVE TRACK 04 AUDIO TITLE "Lily" PERFORMER "Alan Walker feat. K-391 & Emelie Hollow" REM COMPOSER "" INDEX 01 00:00:00FILE "05 Lonely.wav" WAVE TRACK 05 AUDIO TITLE "Lonely" PERFORMER "Alan Walker feat. Steve Aoki & Omar Noir" REM COMPOSER "" INDEX 01 00:00:00FILE "06 Do It All for You.wav" WAVE TRACK 06 AUDIO TITLE "Do It All for You" PERFORMER "Alan Walker feat. Trevor Guthrie" REM COMPOSER "" INDEX 01 00:00:00FILE "07 Different World.wav" WAVE TRACK 07 AUDIO TITLE "Different World" PERFORMER "Alan Walker feat. K-391 & Sofia Carson" REM COMPOSER "" INDEX 01 00:00:00FILE "08 Interlude.wav" WAVE TRACK 08 AUDIO TITLE "Interlude" PERFORMER "Alan Walker" REM COMPOSER "" INDEX 01 00:00:00FILE "09 Sing Me to Sleep.wav" WAVE TRACK 09 AUDIO TITLE "Sing Me to Sleep" PERFORMER "Alan Walker" REM COMPOSER "" INDEX 01 00:00:00FILE "10 All Falls Down.wav" WAVE TRACK 10 AUDIO TITLE "All Falls Down" PERFORMER "Alan Walker feat. Noah Cyrus & Digital Farm Animals & Juliander" REM COMPOSER "" INDEX 01 00:00:00FILE "11 Darkside.wav" WAVE TRACK 11 AUDIO TITLE "Darkside" PERFORMER "Alan Walker feat. Au/Ra & Tomine Harket" REM COMPOSER "" INDEX 01 00:00:00FILE "12 Alone.wav" WAVE TRACK 12 AUDIO TITLE "Alone" PERFORMER "Alan Walker" REM COMPOSER "" INDEX 01 00:00:00FILE "13 Diamond Heart.wav" WAVE TRACK 13 AUDIO TITLE "Diamond Heart" PERFORMER "Alan Walker feat. Sophia Somajo" REM COMPOSER "" INDEX 01 00:00:00FILE "14 Faded (Interlude).wav" WAVE TRACK 14 AUDIO TITLE "Faded (Interlude)" PERFORMER "Alan Walker" REM COMPOSER "" INDEX 01 00:00:00FILE "15 Faded.wav" WAVE TRACK 15 AUDIO TITLE "Faded" PERFORMER "Alan Walker" REM COMPOSER "" INDEX 01 00:00:00

Об исполнителе (группе)

А́лан О́лав Уо́кер (англ. Alan Olav Walker; род. 24 августа 1997, Нортгемптон, Великобритания)- англо-норвежский музыкальный продюсер и диджей. Наиболее известен своим синглом «Faded», собравшим более 2 миллиардов просмотров на YouTube и получившим платиновый статус в нескольких странах. В 2018 году занял 36 место в списке лучших диджеев мира по версии журнала DJ Magazine. В 14 лет Алан начал создавать музыку на своём компьютере с помощью программы FL Studio, изначально под псевдонимом DJ Walkzz. Одной из его первых работ был трек «Celebrate», созданный 7 октября 2012 года. В 2014 году его трек «Fade» привлёк к себе внимание после релиза 17 августа и был повторно выпущен 19 ноября британским звукозаписывающим лейблом NoCopyrightSounds. В 2015 году данный лейбл также выпустил его треки «Spectre» и «Force»


[chi5o.com]_t_5667176.torrent
Торрент: Зарегистрирован ·  [ 2019-01-07 11:59 ] ·  e8dace535692012b0a2e50923a59e62a11678efb

13 KB

Статус: проверено
Скачан: 0 раз
Размер: 308 MB
Оценка: 
(Голосов: 0)
Сказали спасибо: 0  Спасибо
Похожие темы
[Профиль]    [ЛС]
Показать сообщения:    
Ответить на тему

Текущее время: Сегодня 08:20

Часовой пояс: GMT + 7



Вы не можете начинать темы
Вы не можете отвечать на сообщения
Вы не можете редактировать свои сообщения
Вы не можете удалять свои сообщения
Вы не можете голосовать в опросах
Вы не можете прикреплять файлы к сообщениям
Вы можете скачивать файлы


Chap 191 | Mais ›› | Correio da Manhã 10 Maio de 2018