Sheryl Crow - Live At The Capitol Theater [2018, Rock, BDRip, 720p]

Ответить на тему
Статистика раздачи [Обновить пиров]
Размер:  6.29 GB   |    Зарегистрирован:  1 месяц 13 дней   |    Скачан:  0 раз

Полного источника не было: Никогда

 
   
 
 
 
Автор Сообщение

chi5o.com

Создавать темы 07-Янв-2019 12:21

[Цитировать]

Sheryl Crow - Live At The Capitol Theater
Жанр: Rock
Продолжительность: 02:01:45
Год выхода: 2018
Треклист:
  • Every Day Is A Winding Road
  • A Change Would Do You Good
  • All I Wanna Do
  • My Favorite Mistake
  • Be Myself
  • Long Way Back Home
  • Run Baby Run
  • Can't Cry Anymore
  • The First Cut Is The Deepest
  • Atom Bomb
  • Halfway There
  • There Goes The Neighborhood
  • Leaving Las Vegas
  • Strong Enough
  • Heartbeat Away
  • Roller Skate
  • Best of Times
  • If It Makes You Happy
  • Soak Up The Sun
  • Midnight Rider
  • I Shall BelieveКачество: BDRip
    Разрешение видео/развертка: 720p
    Формат файла: MKV
    Видео кодек: H.264
    Аудио кодек: AC3
    Видео: AVC, 1280x720 (16:9), 23.976 fps, 6 500 Kbps
    Аудио#1: AC-3, 48.0 KHz, 6 ch, 448 Kbps
    Аудио#2: AC-3, 48.0 KHz, 2 ch, 448 Kbps

    MediaInfo / x264Logx264Log

    [Information] [04.12.2018 16:39:21] Standard error stream-[Information] [04.12.2018 16:39:46] y4m [info]: 1280x720p 1:1 @ 24000/1001 fps (cfr)-[Information] [04.12.2018 16:39:46] x264 [info]: using SAR=1/1-[Information] [04.12.2018 16:39:46] x264 [info]: using cpu capabilities: MMX2 SSE2Fast SSSE3 SSE4.2 AVX-[Information] [04.12.2018 16:39:46] x264 [info]: profile High, level 4.1-[Information] [05.12.2018 5:21:49] x264 [info]: frame I:1935 Avg QP:16.48 size:138323-[Information] [05.12.2018 5:21:49] x264 [info]: frame P:39400 Avg QP:19.80 size: 58154-[Information] [05.12.2018 5:21:49] x264 [info]: frame B:133802 Avg QP:22.30 size: 25220-[Information] [05.12.2018 5:21:49] x264 [info]: consecutive B-frames: 2.6% 3.2% 7.6% 26.0% 14.0% 42.0% 3.0% 1.0% 0.4% 0.1% 0.1%-[Information] [05.12.2018 5:21:49] x264 [info]: mb I I16..4: 18.3% 54.6% 27.1%-[Information] [05.12.2018 5:21:49] x264 [info]: mb P I16..4: 6.6% 12.9% 2.3% P16..4: 27.6% 30.1% 11.1% 1.8% 0.2% skip: 7.4%-[Information] [05.12.2018 5:21:49] x264 [info]: mb B I16..4: 1.3% 2.6% 0.2% B16..8: 33.1% 21.9% 4.2% direct:13.6% skip:23.0% L0:39.6% L1:38.1% BI:22.3%-[Information] [05.12.2018 5:21:49] x264 [info]: 8x8 transform intra:60.0% inter:59.8%-[Information] [05.12.2018 5:21:49] x264 [info]: direct mvs spatial:93.6% temporal:6.4%-[Information] [05.12.2018 5:21:49] x264 [info]: coded y,uvDC,uvAC intra: 59.3% 92.1% 80.8% inter: 30.9% 49.2% 28.4%-[Information] [05.12.2018 5:21:49] x264 [info]: i16 v,h,dc,p: 73% 11% 4% 12%-[Information] [05.12.2018 5:21:49] x264 [info]: i8 v,h,dc,ddl,ddr,vr,hd,vl,hu: 9% 6% 14% 9% 13% 13% 12% 12% 13%-[Information] [05.12.2018 5:21:49] x264 [info]: i4 v,h,dc,ddl,ddr,vr,hd,vl,hu: 13% 9% 13% 8% 12% 12% 10% 10% 13%-[Information] [05.12.2018 5:21:49] x264 [info]: i8c dc,h,v,p: 51% 17% 16% 16%-[Information] [05.12.2018 5:21:49] x264 [info]: Weighted P-Frames: Y:7.9% UV:4.1%-[Information] [05.12.2018 5:21:49] x264 [info]: ref P L0: 44.5% 10.1% 19.1% 7.7% 6.2% 4.2% 3.7% 2.1% 2.2% 0.2% 0.0%-[Information] [05.12.2018 5:21:49] x264 [info]: ref B L0: 78.2% 10.6% 4.8% 2.4% 1.7% 1.3% 0.8% 0.3%-[Information] [05.12.2018 5:21:49] x264 [info]: ref B L1: 96.1% 3.9%-[Information] [05.12.2018 5:21:49] x264 [info]: kb/s:6498.18-[Information] [05.12.2018 5:21:49] encoded 175137 frames, 3.83 fps, 6498.18 kb/s
    GeneralUnique ID : 337983974331603460950862005433688826113 (0xFE45587F101288825AD55ECADD12A101)Complete name : G:\Sheryl Crow- Live At The Capitol Theater.BDRip720.mkvFormat : MatroskaFormat version : Version 2File size : 6.29 GiBDuration : 2 h 1 minOverall bit rate : 7 396 kb/sMovie name : Sheryl Crow / - Live At The Capitol Theater.BDRip720 @ TorrentcEncoded date : UTC 2018-12-07 20:24:24Writing application : mkvmerge v28.2.0 ('The Awakening') 64-bitWriting library : libebml v1.3.6 + libmatroska v1.4.9
    VideoID : 1Format : AVCFormat/Info : Advanced Video CodecFormat profile : High@L4.1Format settings : CABAC / 9 Ref FramesFormat settings, CABAC : YesFormat settings, RefFrames : 9 framesCodec ID : V_MPEG4/ISO/AVCDuration : 2 h 1 minBit rate : 6 500 kb/sWidth : 1 280 pixelsHeight : 720 pixelsDisplay aspect ratio : 16:9Frame rate mode : ConstantFrame rate : 23.976 (24000/1001) FPSColor space : YUVChroma subsampling : 4:2:0Bit depth : 8 bitsScan type : ProgressiveBits/(Pixel*Frame) : 0.294Stream size : 5.53 GiB (88%)Title : anbelk27 @ TorrentcWriting library : x264 core 155 r2901 7d0ff22Encoding settings : cabac=1 / ref=9 / deblock=1:-2:-3 / analyse=0x3:0x133 / me=umh / subme=11 / psy=1 / psy_rd=1.11:0.07 / mixed_ref=1 / me_range=32 / chroma_me=1 / trellis=2 / 8x8dct=1 / cqm=0 / deadzone=21,11 / fast_pskip=1 / chroma_qp_offset=-3 / threads=6 / lookahead_threads=1 / sliced_threads=0 / nr=0 / decimate=1 / interlaced=0 / bluray_compat=0 / constrained_intra=0 / bframes=10 / b_pyramid=2 / b_adapt=2 / b_bias=0 / direct=3 / weightb=1 / open_gop=0 / weightp=2 / keyint=240 / keyint_min=23 / scenecut=50 / intra_refresh=0 / rc_lookahead=80 / rc=2pass / mbtree=1 / bitrate=6500 / ratetol=1.0 / qcomp=0.60 / qpmin=0 / qpmax=69 / qpstep=4 / cplxblur=20.0 / qblur=0.5 / vbv_maxrate=50000 / vbv_bufsize=62500 / nal_hrd=none / filler=0 / ip_ratio=1.40 / aq=1:1.00Default : YesForced : No
    Audio #1ID : 2Format : AC-3Format/Info : Audio Coding 3Codec ID : A_AC3Duration : 2 h 1 minBit rate mode : ConstantBit rate : 448 kb/sChannel(s) : 6 channelsChannel positions : Front: L C R, Side: L R, LFESampling rate : 48.0 kHzFrame rate : 31.250 FPS (1536 SPF)Bit depth : 16 bitsCompression mode : LossyStream size : 390 MiB (6%)Title : AC3 5.1 @ 16 bitService kind : Complete MainDefault : YesForced : No
    Audio #2ID : 3Format : AC-3Format/Info : Audio Coding 3Codec ID : A_AC3Duration : 2 h 1 minBit rate mode : ConstantBit rate : 448 kb/sChannel(s) : 2 channelsChannel positions : Front: L RSampling rate : 48.0 kHzFrame rate : 31.250 FPS (1536 SPF)Bit depth : 16 bitsCompression mode : LossyStream size : 390 MiB (6%)Title : AC3 2.0 @ 16 bitService kind : Complete MainDefault : NoForced : No
    Menu00:00:00.000 : en: Intro00:00:41.542 : en: 01. Every Day Is A Winding Road00:07:42.963 : en: 02. A Change Would Do You Good00:12:43.763 : en: 03. All I Wanna Do00:17:50.069 : en: 04. My Favorite Mistake00:23:52.431 : en: 05. Be Myself00:29:17.256 : en: 06. Long Way Back Home00:35:00.599 : en: 07. Run Baby Run00:40:27.925 : en: 08. Can't Cry Anymore00:46:07.265 : en: 09. The First Cut Is The Deepest00:50:30.528 : en: 10. Atom Bomb00:56:13.370 : en: 11. Halfway There01:02:03.720 : en: 12. There Goes The Neighborhood01:07:38.555 : en: 13. Leaving Las Vegas01:14:03.439 : en: 14. Strong Enough01:18:52.728 : en: 15. Heartbeat Away01:25:29.124 : en: 16. Roller Skate01:29:34.369 : en: 17. Best of Times01:35:52.247 : en: 18. If It Makes You Happy01:42:44.158 : en: 19. Soak Up The Sun01:49:07.541 : en: 20. Midnight Rider01:54:39.373 : en: 21. I Shall Believe

    Скриншоты




    [chi5o.com]_t_5656267.torrent
    Торрент: Зарегистрирован ·  [ 2019-01-07 11:59 ] ·  0bebfb1f3c3f64e638275cfc4ba7c35eeda03997

    32 KB

    Статус: проверено
    Скачан: 0 раз
    Размер: 6.29 GB
    Оценка: 
    (Голосов: 0)
    Сказали спасибо: 0  Спасибо
    Похожие темы
  • [Профиль]    [ЛС]
    Показать сообщения:    
    Ответить на тему

    Текущее время: Сегодня 18:37

    Часовой пояс: GMT + 7



    Вы не можете начинать темы
    Вы не можете отвечать на сообщения
    Вы не можете редактировать свои сообщения
    Вы не можете удалять свои сообщения
    Вы не можете голосовать в опросах
    Вы не можете прикреплять файлы к сообщениям
    Вы можете скачивать файлы


    Chapter 43: 128 | Black Mirror: (2018) | An Acceptable Loss (2019)