[TR24][OF] Frank Kimbrough - Monk\'s Dreams: The Complete Compositions Of Thelonious Sphere Monk - 2018 (Jazz, Contemporary Jazz)

Ответить на тему
Статистика раздачи [Обновить пиров]
Размер:  6.19 GB   |    Зарегистрирован:  14 дней   |    Скачан:  0 раз

Полного источника не было: Никогда

 
   
 
 
 
Автор Сообщение

chi5o.com

Создавать темы 07-Янв-2019 01:37

[Цитировать]

Monk's Dreams: The Complete Compositions Of Thelonious Sphere Monk-- Формат файла записи/Источник записи: [TR24][OF]
Наличие водяных знаков: Нет
Год издания: 2018
Жанр: Jazz, Contemporary Jazz
Издатель (лейбл): Sunnyside
Продолжительность: 05:30:09
Наличие сканов в содержимом раздачи: Только обложка альбома
Формат файла: FLAC (*.flac)
Тип рипа: tracks
Разрядность: 24/96
Формат файла: PCM
Количество каналов: 2.0
Источник (релизер): qobuz.com-

Треклист:

01. Thelonious [04:51]
02. Light Blue [06:15]
03. Played Twice [04:41]
04. Ba-Lue Bolivar Ba-Lues-Are [05:00]
05. Ask Me Now [05:31]
06. Humph [04:36]
07. Bright Mississippi [05:50]
08. Reflections [05:02]
09. Bemsha Swing [04:41]
10. Teo [06:02]
11. Blue Sphere [04:22]
12. Crepuscule With Nellie [02:28]
13. Think Of One [04:28]
14. 52nd St. Theme [02:24]
15. Eronel [05:23]
16. Bluehawk [05:30]
17. Little Rootie Tootie [06:07]
18. Two Timer [03:17]
19. Ruby, My Dear [04:39]
20. Boo Boo's Birthday [05:11]
21. San Francisco Holiday [05:12]
22. Functional [04:24]
23. I Mean You [05:05]
24. Shuffle Boil [05:42]
25. Monk's Dream [05:53]
26. Evidence [05:31]
27. Misterioso [03:54]
28. Four In One [06:00]
29. Brake's Sake [05:22]
30. Pannonica [04:17]
31. Bye-Ya [04:28]
32. North On The Sunset [02:45]
33. Introspection [03:59]
34. We See [04:49]
35. In Walked Bud [04:10]
36. Nutty [06:45]
37. Trinkle Tinkle [04:35]
38. Blues Five Spot [05:09]
39. Round Midnight [05:23]
40. Jackie-Ing [02:40]
41. Well You Needn't [05:40]
42. Sixteen [04:03]
43. Locomotive [04:37]
44. Gallop's Gallop [04:13]
45. Children's Song [04:47]
46. Blue Monk [06:44]
47. Friday The 13th [05:18]
48. Criss Cross [04:17]
49. Raise Four [03:35]
50. Let's Call This [05:07]
51. Who Knows [03:56]
52. A Merrier Christmas [03:40]
53. Stuffy Turkey [05:19]
54. Monk's Point [03:27]
55. Work [03:23]
56. Brilliant Corners [06:44]
57. Off Minor [03:46]
58. Hackensack [05:27]
59. Oska T [03:18]
60. Let's Cool One [05:57]
61. Hornin' In [04:24]
62. Coming On The Hudson [03:46]
63. Straight No Chaser [04:46]
64. Monk's Mood [05:09]
65. Green Chimneys [03:28]
66. Rhythm-A-Ning [05:36]
67. Ugly Beauty [04:32]
68. Skippy [03:41]
69. Something In Blue [04:43]
70. Epistrophy [04:25]

Исполнители:

Frank Kimbrough, piano
Scott Robinson, tenor and bass saxophones, trumpet, echo cornet, bass clarinet, contrabass sarrusophone
Rufus Reid, bass
Billy Drummond, drums

Лог проверки качества

foobar2000 1.4 / Dynamic Range Meter 1.1.1log date: 2019-01-06 17:57:50
--------------------------------------------------------------------------------Analyzed: Frank Kimbrough / Monk's Dreams: The Complete Compositions Of Thelonious Sphere Monk--------------------------------------------------------------------------------
DR Peak RMS Duration Track--------------------------------------------------------------------------------DR11 -2.51 dB -15.90 dB 4:51 01-TheloniousDR13 -2.43 dB -19.21 dB 6:15 02-Light BlueDR13 -1.35 dB -16.65 dB 4:42 03-Played TwiceDR14 -1.28 dB -18.36 dB 5:00 04-Ba-Lue Bolivar Ba-Lues-AreDR12 -7.12 dB -22.22 dB 5:31 05-Ask Me NowDR12 -1.73 dB -15.59 dB 4:37 06-HumphDR13 -2.19 dB -17.43 dB 5:50 07-Bright MississippiDR14 -6.33 dB -25.08 dB 5:03 08-ReflectionsDR12 -3.05 dB -16.84 dB 4:42 09-Bemsha SwingDR13 -2.04 dB -18.92 dB 6:03 10-TeoDR15 -1.63 dB -19.60 dB 4:23 11-Blue SphereDR12 -6.55 dB -21.50 dB 2:28 12-Crepuscule With NellieDR12 -2.25 dB -16.74 dB 4:28 13-Think Of OneDR12 -2.31 dB -17.31 dB 2:24 14-52nd St. ThemeDR13 -3.27 dB -19.33 dB 5:24 15-EronelDR16 -6.40 dB -25.97 dB 5:30 16-BluehawkDR13 -2.78 dB -17.66 dB 6:08 17-Little Rootie TootieDR13 -1.76 dB -16.90 dB 3:18 18-Two TimerDR12 -4.74 dB -20.20 dB 4:39 19-Ruby, My DearDR13 -1.09 dB -17.81 dB 5:12 20-Boo Boo's BirthdayDR13 -0.38 dB -16.43 dB 5:12 21-San Francisco HolidayDR13 -4.90 dB -21.13 dB 4:25 22-FunctionalDR13 -0.86 dB -17.68 dB 5:06 23-I Mean YouDR12 -0.64 dB -15.59 dB 5:42 24-Shuffle BoilDR14 -0.51 dB -16.39 dB 5:53 25-Monk's DreamDR13 -1.60 dB -16.77 dB 5:31 26-EvidenceDR13 -3.56 dB -18.81 dB 3:54 27-MisteriosoDR13 -1.19 dB -16.30 dB 6:00 28-Four In OneDR12 -1.43 dB -15.52 dB 5:23 29-Brake's SakeDR13 -3.19 dB -19.83 dB 4:18 30-PannonicaDR13 -2.10 dB -17.00 dB 4:29 31-Bye-YaDR12 -2.40 dB -17.78 dB 2:46 32-North On The SunsetDR13 -1.59 dB -17.14 dB 4:00 33-IntrospectionDR13 -0.10 dB -17.22 dB 4:49 34-We SeeDR12 -2.13 dB -15.89 dB 4:10 35-In Walked BudDR12 -0.96 dB -16.93 dB 6:45 36-NuttyDR13 -1.48 dB -16.76 dB 4:35 37-Trinkle TinkleDR13 -1.39 dB -17.49 dB 5:09 38-Blues Five SpotDR14 -2.55 dB -21.78 dB 5:24 39-Round MidnightDR13 -1.66 dB -17.63 dB 2:40 40-Jackie-IngDR12 -2.03 dB -16.29 dB 5:41 41-Well You Needn'tDR12 -1.18 dB -16.21 dB 4:04 42-SixteenDR12 -1.81 dB -17.58 dB 4:38 43-LocomotiveDR13 -1.02 dB -14.93 dB 4:13 44-Gallop's GallopDR13 -1.63 dB -16.80 dB 4:47 45-Children's SongDR13 -1.67 dB -19.64 dB 6:44 46-Blue MonkDR12 -2.26 dB -15.54 dB 5:19 47-Friday The 13thDR13 -0.96 dB -16.33 dB 4:18 48-Criss CrossDR12 -1.10 dB -15.71 dB 3:36 49-Raise FourDR12 -1.13 dB -15.44 dB 5:08 50-Let's Call ThisDR12 -1.56 dB -15.28 dB 3:56 51-Who KnowsDR12 -4.42 dB -20.02 dB 3:40 52-A Merrier ChristmasDR13 -1.13 dB -16.18 dB 5:19 53-Stuffy TurkeyDR11 -2.24 dB -17.01 dB 3:28 54-Monk's PointDR13 -1.07 dB -15.67 dB 3:24 55-WorkDR12 -0.93 dB -15.43 dB 6:44 56-Brilliant CornersDR13 -0.10 dB -15.00 dB 3:47 57-Off MinorDR12 -1.75 dB -15.91 dB 5:28 58-HackensackDR12 -0.11 dB -13.93 dB 3:19 59-Oska TDR13 -1.30 dB -17.19 dB 5:58 60-Let's Cool OneDR14 -1.37 dB -18.38 dB 4:24 61-Hornin' InDR12 -2.09 dB -16.21 dB 3:47 62-Coming On The HudsonDR11 -1.27 dB -14.03 dB 4:46 63-Straight No ChaserDR12 -3.31 dB -19.56 dB 5:10 64-Monk's MoodDR13 -1.22 dB -17.27 dB 3:28 65-Green ChimneysDR11 -1.35 dB -14.79 dB 5:37 66-Rhythm-A-NingDR12 -2.24 dB -18.19 dB 4:32 67-Ugly BeautyDR12 -1.55 dB -15.01 dB 3:41 68-SkippyDR12 -4.01 dB -20.01 dB 4:43 69-Something In BlueDR12 -1.84 dB -15.11 dB 4:25 70-Epistrophy--------------------------------------------------------------------------------
Number of tracks: 70Official DR value: DR13Samplerate: 96000 HzChannels: 2Bits per sample: 24Bitrate: 2830 kbpsCodec: FLAC================================================================================

Об альбоме (сборнике)

The genius of pianist and composer Thelonious Monk is unassailable. Since his death in 1982, he has become recognized as one of the greatest composers of jazz – and of the wider world of music. The year 2017 was the centennial of Monk’s birth, and brought scores of tributes, including a well-received stay of pianist Frank Kimbrough’s quartet at the Jazz Standard club in New York City.
Like many jazz pianists, Kimbrough found Monk’s music a revelation when he first heard it. From the outset of his career, Kimbrough has returned time and again to Monk’s compositions. After nearly four decades of study, reflection, and performance, Kimbrough has established a relationship with these pieces and found a way to express himself through the prism of Monk.
When the Standard approached Kimbrough to put together a quartet to play Monk’s music, he picked the brilliant rhythm section of bassist Rufus Reid and drummer Billy Drummond. His choice for lead horn voice was the multi-instrumentalist Scott Robinson, with whom he has played for many years and in many combinations, most notably with the Maria Schneider Orchestra.
After the first set of the October 17th, 2017 performance at the Standard Kimbrough’s friend Mait Jones urged that the group record Monk’s entire oeuvre, a feat that Kimbrough had never considered. A jazz fan and co-presenter of his own Princeton series JazzNights Jones began a lifelong appreciation of Monk when he heard the master live at the Five Spot in New York City in 1957.
Over the next few days, Jones doubled down on his intent to make the project reach fruition, bringing in his friend and fellow jazz head, Dr. Dorothy Lieberman, to help co-produce the effort.
The musicians began the intensive work such a project demands. Finally, in April of 2018 Kimbrough led a trio and then the quartet at Jazz at the Kitano, polishing 30 new tunes on the way to the full Monk catalog of 70 pieces.
For the recording, Matt Balitsaris provided his renowned Maggie’s Farm studios and an optimistic plan of recording a disc’s worth of material each day for six days. The musicians recorded each day from 11 to 5 or 6 in two three-day intervals broken up by a three-day respite. Miraculously this ambitious plan succeeded, with most tunes needing only one or two takes. Robinson picked his axe of choice on the spot, from the standard (tenor sax and trumpet) to the exotic (bass saxophone, echo cornet, bass clarinet, and contrabass sarrusophone). The resultant tracks are fresh, varied, and inspired.
Highlights of the group’s takes on these classic pieces include Robinson’s juggling of trumpet and tenor sax on “Thelonious” and the ensemble’s free-wheeling energy on “Skippy.” “Locomotive” is the picture of peaceful beauty, whereas “Jackie-ing” is all jumps and starts. Reid and Robinson play beautifully on “Reflections” and a lovely solo performance of “Crepuscule with Nellie” showcases Kimbrough’s command of the piano and Monk’s language.
The recordings form a fantastically diverse collection. On the six-CD set, titled Monk's Dreams: The Complete Compositions of Thelonious Sphere Monk, Monk’s compositions are played in various configurations, most by the quartet, but others in smaller combinations, even solo piano. The package also includes beautifully penned liner notes from Nate Chinen (New York Times, WBGO and NPR) along with notes from members of the ensemble and the producers of the album.


[chi5o.com]_t_5670513.torrent
Торрент: Зарегистрирован ·  [ 2019-01-07 01:37 ] ·  74869bb4cfc286a4f130a05c14c21a568bc6445d

35 KB

Статус: проверено
Скачан: 0 раз
Размер: 6.19 GB
Оценка: 
(Голосов: 0)
Сказали спасибо: 0  Спасибо
Похожие темы
[Профиль]    [ЛС]
Показать сообщения:    
Ответить на тему

Текущее время: Сегодня 19:00

Часовой пояс: GMT + 7



Вы не можете начинать темы
Вы не можете отвечать на сообщения
Вы не можете редактировать свои сообщения
Вы не можете удалять свои сообщения
Вы не можете голосовать в опросах
Вы не можете прикреплять файлы к сообщениям
Вы можете скачивать файлы


Economics and Eco-tourism - 365 Words | Oscar Isaac | Chitpong Khattapong