Приключения Авакума Захова. Спящая красавица. / Приключенията на Авакум Захов. Спящата красавица. (Йордан Джумалиев / Yordan Dzhumaliev) [1980, Болгария, Детектив, TVRip] VO (Urasiko)

Ответить на тему
Статистика раздачи [Обновить пиров]
Размер:  844 MB   |    Зарегистрирован:  11 дней   |    Скачан:  0 раз

Полного источника не было: Никогда

 
   
 
 
 
Автор Сообщение

chi5o.com

Создавать темы 07-Янв-2019 01:37

[Цитировать]

Приключения Авакума Захова. Спящая красавица. / Приключенията на Авакум Захов. Спящата красавица.
Страна: Болгария
Жанр: Детектив
Год выхода: 1980
Продолжительность: 01:21:07
Перевод: Одноголосый закадровый Urasiko
Субтитры: нет
Оригинальная аудиодорожка: Болгарский
Режиссер: Йордан Джумалиев / Yordan Dzhumaliev
В ролях: Иван Налбантов, Николай Николаев, Досе Досев, Любомир Младенов, Антония Дечева, Найчо Петров, Дамян Антонов.
Описание: Фильм снят по повести Андрея Гуляшки "Спящая красавица".
Ветеринара Анастасия Букова наконец-то угораздило отправиться от своих коров подальше в отпуск. Он не нашел ничего лучшего, как навестить своего приятеля Авакума Захова, изнывающего от одиночества. Тот по прежнему глубоко «законсервирован» и скрашивает свои тоскливые будни увлечением кино и фотосъемкой, а вечерами просиживает у доктора физико-математических наук Найдена Найденова — постоянного обитателя инвалидной коляски. Иногда профессора посещает племянник Харлампий — преуспевающий мастер по устройству витрин и выставочных павильонов, а также большой любитель карточных игр, и его невеста — «прекрасная фея» балерина Мария Максимова.
Доп. информация:
Перевод: harpv
Редактирование: Sasha
Озвучивание: Urasiko
Сэмпл: http://multi-up.com/1219627
Качество видео: TVRip
Формат файла: AVI
Видео: XviD build 64, 704x528 (1.33:1), 25.000 fps, ~1055 kbps avg, 0.11 bit/pixel
Аудио: Русский, AC3 Dolby Digital, 2/0 (L,R) ch, 48 kHz, 192 kbps
Аудио 2: Болгарский, AC3 Dolby Digital, 2/0 (L,R) ch, 48 kHz, 192 kbps

MediaInfo

ОбщееПолное имя : D:\Muvi\Приключенията на Авакум Захов Спящата красавица\Приключения Авакума Захова (Спящая красавица) Rus.aviФормат файла : AVIФормат файла/Информация : Audio Video InterleaveРазмер файла : 844 МбайтПродолжительность : 1 ч. 21 м.Общий поток : 1455 Кбит/сек
ВидеоИдентификатор : 0Формат файла : MPEG-4 VisualПрофиль формата : Advanced Simple@L5Настройки формата : BVOP1 / Custom MatrixПараметр BVOP формата : 1Параметр QPel формата : НетПараметр GMC формата : Без точки переходаПараметр матрицы формата : ВыборочнаяИдентификатор кодека : XVIDИдентификатор кодека/Подсказка : XviDПродолжительность : 1 ч. 21 м.Битрейт : 1056 Кбит/секШирина : 704 пикселяВысота : 528 пикселейСоотношение сторон : 4:3Частота кадров : 25,000 кадров/секЦветовое пространство : YUVСубдискретизация насыщенности : 4:2:0Битовая глубина : 8 битТип развёртки : ПрогрессивнаяМетод сжатия : С потерямиБит/(Пиксели*Кадры) : 0.114Размер потока : 613 Мбайт (73%)Библиотека кодирования : XviD 64
Аудио #1Идентификатор : 1Формат файла : AC-3Формат файла/Информация : Audio Coding 3Идентификатор кодека : 2000Продолжительность : 1 ч. 21 м.Вид битрейта : ПостоянныйБитрейт : 192 Кбит/секКаналы : 2 каналаРасположение каналов : Front: L RЧастота : 48,0 КГцЧастота кадров : 31,250 кадров/сек (1536 SPF)Битовая глубина : 16 битМетод сжатия : С потерямиРазмер потока : 111 Мбайт (13%)Выравнивание : Разделение по промежуткамПродолжительность промежутка : 40 мс. (1,00 видеокадр)Время предзагрузки промежутка : 500 мс.ServiceKind/String : Complete Main
Аудио #2Идентификатор : 2Формат файла : AC-3Формат файла/Информация : Audio Coding 3Идентификатор кодека : 2000Продолжительность : 1 ч. 21 м.Вид битрейта : ПостоянныйБитрейт : 192 Кбит/секКаналы : 2 каналаРасположение каналов : Front: L RЧастота : 48,0 КГцЧастота кадров : 31,250 кадров/сек (1536 SPF)Битовая глубина : 16 битМетод сжатия : С потерямиРазмер потока : 111 Мбайт (13%)Выравнивание : Разделение по промежуткамПродолжительность промежутка : 40 мс. (1,00 видеокадр)Время предзагрузки промежутка : 500 мс.ServiceKind/String : Complete Main

Скриншот c названием фильма

Скриншоты



[chi5o.com]_t_5670517.torrent
Торрент: Зарегистрирован ·  [ 2019-01-07 01:37 ] ·  b3abcb689ec4dc914b7f95a409647a9013092aee

17 KB

Статус: проверено
Скачан: 0 раз
Размер: 844 MB
Оценка: 
(Голосов: 0)
Сказали спасибо: 0  Спасибо
Похожие темы
[Профиль]    [ЛС]
Показать сообщения:    
Ответить на тему

Текущее время: Сегодня 12:45

Часовой пояс: GMT + 7



Вы не можете начинать темы
Вы не можете отвечать на сообщения
Вы не можете редактировать свои сообщения
Вы не можете удалять свои сообщения
Вы не можете голосовать в опросах
Вы не можете прикреплять файлы к сообщениям
Вы можете скачивать файлы


Parenting Bud season 03 episode 20 | MORE FROM AUTHOR | Quest for Camelot (Movie)