[TR24][OF] Charlotte Gainsbourg - Take 2 (EP) - 2018 (Electro, Synth-pop, Indie Pop)

Ответить на тему
Статистика раздачи [Обновить пиров]
Размер:  275 MB   |    Зарегистрирован:  14 дней   |    Скачан:  0 раз

Полного источника не было: Никогда

 
   
 
 
 
Автор Сообщение

chi5o.com

Создавать темы 06-Янв-2019 19:20

[Цитировать]

Charlotte Gainsbourg / Take 2
Формат файла записи/Источник записи: [TR24][OF]
Наличие водяных знаков: Нет
Издание: EP
Год издания/переиздания диска: 2018
Жанр: Electro, Synth-pop, Indie Pop
Издатель (лейбл): Because Music
Продолжительность: 00:23:00
Наличие сканов в содержимом раздачи: Только обложка альбома
Треклист:
01. Such a Remarkable Day (03:37)02. Bombs Away (03:48)03. Lost Lenore (04:47)04. Runaway (Live Version) (03:11)05. Deadly Valentine (Live Version) (07:37)
Формат файла: FLAC (*.flac)
Тип рипа: tracks
Разрядность: 24/44,1
Формат файла: PCM
Количество каналов: 2.0

Лог проверки качества

ОбщееПолное имя : C:\torrents\! moe\Charlotte Gainsbourg - Take 2 [24-44.1]\03. Lost Lenore.flacФормат файла : FLACФормат файла/Информация : Free Lossless Audio CodecРазмер файла : 55,9 МбайтПродолжительность : 4 м. 47 с.Режим общего битрейта : ПеременныйОбщий поток : 1632 Кбит/секАльбом : Take 2Альбом/Исполнитель : Charlotte Gainsbourg / Charlotte GainsbourgЧасть : 1/1Трек : Lost LenoreТрек/Положение : 03Исполнитель : Charlotte GainsbourgЖанр : AlternativeДата записи : 2018Обложка : YesТип обложки : Cover (front)MIME-тип обложки : image/jpeg
АудиоФормат файла : FLACФормат файла/Информация : Free Lossless Audio CodecПродолжительность : 4 м. 47 с.Вид битрейта : ПеременныйБитрейт : 1630 Кбит/секКаналы : 2 каналаРасположение каналов : Front: L RЧастота : 44,1 КГцБитовая глубина : 24 битРазмер потока : 55,8 Мбайт (100%)Библиотека кодирования : Tag&Rename
ОбщееПолное имя : C:\torrents\! moe\Charlotte Gainsbourg - Take 2 [24-44.1]\04. Runaway (Live Version).flacФормат файла : FLACФормат файла/Информация : Free Lossless Audio CodecРазмер файла : 34,8 МбайтПродолжительность : 3 м. 11 с.Режим общего битрейта : ПеременныйОбщий поток : 1524 Кбит/секАльбом : Take 2Альбом/Исполнитель : Charlotte Gainsbourg / Charlotte GainsbourgЧасть : 1/1Трек : Runaway (Live Version)Трек/Положение : 04Исполнитель : Charlotte GainsbourgЖанр : AlternativeДата записи : 2018Обложка : YesТип обложки : Cover (front)MIME-тип обложки : image/jpeg
АудиоФормат файла : FLACФормат файла/Информация : Free Lossless Audio CodecПродолжительность : 3 м. 11 с.Вид битрейта : ПеременныйБитрейт : 1521 Кбит/секКаналы : 2 каналаРасположение каналов : Front: L RЧастота : 44,1 КГцБитовая глубина : 24 битРазмер потока : 34,7 Мбайт (100%)Библиотека кодирования : Tag&Rename
ОбщееПолное имя : C:\torrents\! moe\Charlotte Gainsbourg - Take 2 [24-44.1]\05. Deadly Valentine (Live Version).flacФормат файла : FLACФормат файла/Информация : Free Lossless Audio CodecРазмер файла : 93,8 МбайтПродолжительность : 7 м. 36 с.Режим общего битрейта : ПеременныйОбщий поток : 1723 Кбит/секАльбом : Take 2Альбом/Исполнитель : Charlotte Gainsbourg / Charlotte GainsbourgЧасть : 1/1Трек : Deadly Valentine (Live Version)Трек/Положение : 05Исполнитель : Charlotte GainsbourgЖанр : AlternativeДата записи : 2018Обложка : YesТип обложки : Cover (front)MIME-тип обложки : image/jpeg
АудиоФормат файла : FLACФормат файла/Информация : Free Lossless Audio CodecПродолжительность : 7 м. 36 с.Вид битрейта : ПеременныйБитрейт : 1721 Кбит/секКаналы : 2 каналаРасположение каналов : Front: L RЧастота : 44,1 КГцБитовая глубина : 24 битРазмер потока : 93,7 Мбайт (100%)Библиотека кодирования : Tag&Rename
ОбщееПолное имя : C:\torrents\! moe\Charlotte Gainsbourg - Take 2 [24-44.1]\01. Such a Remarkable Day.flacФормат файла : FLACФормат файла/Информация : Free Lossless Audio CodecРазмер файла : 46,0 МбайтПродолжительность : 3 м. 37 с.Режим общего битрейта : ПеременныйОбщий поток : 1776 Кбит/секАльбом : Take 2Альбом/Исполнитель : Charlotte Gainsbourg / Charlotte GainsbourgЧасть : 1/1Трек : Such a Remarkable DayТрек/Положение : 01Исполнитель : Charlotte GainsbourgЖанр : AlternativeДата записи : 2018Обложка : YesТип обложки : Cover (front)MIME-тип обложки : image/jpeg
АудиоФормат файла : FLACФормат файла/Информация : Free Lossless Audio CodecПродолжительность : 3 м. 37 с.Вид битрейта : ПеременныйБитрейт : 1774 Кбит/секКаналы : 2 каналаРасположение каналов : Front: L RЧастота : 44,1 КГцБитовая глубина : 24 битРазмер потока : 46,0 Мбайт (100%)Библиотека кодирования : Tag&Rename
ОбщееПолное имя : C:\torrents\! moe\Charlotte Gainsbourg - Take 2 [24-44.1]\02. Bombs Away.flacФормат файла : FLACФормат файла/Информация : Free Lossless Audio CodecРазмер файла : 44,7 МбайтПродолжительность : 3 м. 47 с.Режим общего битрейта : ПеременныйОбщий поток : 1649 Кбит/секАльбом : Take 2Альбом/Исполнитель : Charlotte Gainsbourg / Charlotte GainsbourgЧасть : 1/1Трек : Bombs AwayТрек/Положение : 02Исполнитель : Charlotte GainsbourgЖанр : AlternativeДата записи : 2018Обложка : YesТип обложки : Cover (front)MIME-тип обложки : image/jpeg
АудиоФормат файла : FLACФормат файла/Информация : Free Lossless Audio CodecПродолжительность : 3 м. 47 с.Вид битрейта : ПеременныйБитрейт : 1646 Кбит/секКаналы : 2 каналаРасположение каналов : Front: L RЧастота : 44,1 КГцБитовая глубина : 24 битРазмер потока : 44,7 Мбайт (100%)Библиотека кодирования : Tag&Rename
Источник: qobuz.com


[chi5o.com]_t_5664542.torrent
Торрент: Зарегистрирован ·  [ 2019-01-06 19:01 ] ·  92c71cd25c8e4f52fc028bd3e1038f281e5f202a

12 KB

Статус: проверено
Скачан: 0 раз
Размер: 275 MB
Оценка: 
(Голосов: 0)
Сказали спасибо: 0  Спасибо
Похожие темы
[Профиль]    [ЛС]
Показать сообщения:    
Ответить на тему

Текущее время: Сегодня 23:12

Часовой пояс: GMT + 7



Вы не можете начинать темы
Вы не можете отвечать на сообщения
Вы не можете редактировать свои сообщения
Вы не можете удалять свои сообщения
Вы не можете голосовать в опросах
Вы не можете прикреплять файлы к сообщениям
Вы можете скачивать файлы


Responder | video converter | B612Make your selfies sizzle