Оставайся голодным / Stay Hungry (Боб Рэфелсон / Bob Rafelson) [1976, США, драма, комедия, HDRip] AVO (А. Кашкин - Первомайский)

Ответить на тему
Статистика раздачи [Обновить пиров]
Размер:  1.45 GB   |    Зарегистрирован:  11 дней   |    Скачан:  0 раз

Полного источника не было: Никогда

 
   
 
 
 
Автор Сообщение

chi5o.com

Создавать темы 06-Янв-2019 16:57

[Цитировать]

Оставайся голодным / Stay Hungry
Страна: США
Жанр: Драма, комедия
Год выхода: 1976
Продолжительность: 01:42:51
Перевод: Авторский (одноголосый закадровый) А. Кашкин - Первомайский
Субтитры: нет
Режиссер: Боб Рэфелсон / Bob Rafelson
В ролях: Джефф Бриджес , Салли Филд , Арнольд Шварценеггер
Р.Г. Армстронг
Роберт Инглунд
Хелена Каллианиотес
Роджер Э. Мосли
Вудроу Парфри
Скэтмэн Крозерс
Кэтлин Миллер
Описание: Крупный синдикат хочет прибрать к рукам целый район. Уже скуплены все здания, за исключением маленького гимнастического зала «Олимпик», где местный чемпион по бодибилдингу Джо Санто, готовится к предстоящему соревнованию. В ряды тренирующихся спортсменов внедряется спецагент.
Доп. информация: Звуковая дорожка А. Кашкина снята и синхронизирована мною с VHS
Видеоряд найден в сети
Сэмпл: http://yadi.sk/i/Ass6QbCZ2c_jIw
Качество видео: HDRip
Формат файла: AVI
Видео: XviD , 720x400 (1.80:1), 23.976 fps, 1 821 Kbps
Аудио: AC3 , 48 kHz , 192.00 kbps avg , 2/0 (L,R) ch

MediaInfo

Complete name Оставайся голодным 1976(Kashkin).aviFormat : AVIFormat/Info : Audio Video InterleaveFile size : 1.45 GiBDuration : 1h 42mnOverall bit rate : 2 022 KbpsWriting library : VirtualDub build 35491/release
VideoID : 0Format : MPEG-4 VisualFormat profile : Advanced Simple@L5Format settings, BVOP : 1Format settings, QPel : NoFormat settings, GMC : No warppointsFormat settings, Matrix : CustomCodec ID : XVIDCodec ID/Hint : XviDDuration : 1h 42mnBit rate : 1 821 KbpsWidth : 720 pixelsHeight : 400 pixelsDisplay aspect ratio : 16:9Frame rate : 23.976 (23976/1000) fpsColor space : YUVChroma subsampling : 4:2:0Bit depth : 8 bitsScan type : ProgressiveCompression mode : LossyBits/(Pixel*Frame) : 0.264Stream size : 1.31 GiB (90%)Writing library : XviD 73
AudioID : 1Format : AC-3Format/Info : Audio Coding 3Mode extension : CM (complete main)Format settings, Endianness : BigCodec ID : 2000Duration : 1h 42mnBit rate mode : ConstantBit rate : 192 KbpsChannel(s) : 2 channelsChannel positions : Front: L RSampling rate : 48.0 KHzFrame rate : 31.250 fps (1536 spf)Compression mode : LossyStream size : 141 MiB (9%)Alignment : Aligned on interleavesInterleave, duration : 42 ms (1.00 video frame)Interleave, preload duratio : 512 ms

Скриншоты



[chi5o.com]_t_5670247.torrent
Торрент: Зарегистрирован ·  [ 2019-01-06 16:57 ] ·  6c5b9a6395158a51b087f8ead32b6929f4388a9b

15 KB

Статус: проверено
Скачан: 0 раз
Размер: 1.45 GB
Оценка: 
(Голосов: 0)
Сказали спасибо: 0  Спасибо
Похожие темы
[Профиль]    [ЛС]
Показать сообщения:    
Ответить на тему

Текущее время: Сегодня 13:13

Часовой пояс: GMT + 7



Вы не можете начинать темы
Вы не можете отвечать на сообщения
Вы не можете редактировать свои сообщения
Вы не можете удалять свои сообщения
Вы не можете голосовать в опросах
Вы не можете прикреплять файлы к сообщениям
Вы можете скачивать файлы


Inventurkiste, alles muß raus **/*/gestempelt Briefmarken, Belege! | Monster Strike the Animation Episode 24 | Schlichter Becher aus Silber, punziert 800