[TR24][OF] Various Artists - Spider-Man: Into the Spider-Verse (Soundtrack From & Inspired by the Motion Picture) - 2018 (Hip-Hop/Rap)

Ответить на тему
Статистика раздачи [Обновить пиров]
Размер:  481 MB   |    Зарегистрирован:  16 дней   |    Скачан:  0 раз

Полного источника не было: Никогда

 
   
 
 
 
Автор Сообщение

chi5o.com

Создавать темы 05-Янв-2019 14:15

[Цитировать]

Various Artists / Spider-Man: Into the Spider-Verse (Soundtrack From & Inspired by the Motion Picture)
Формат файла записи/Источник записи: [TR24][OF]
Наличие водяных знаков: Нет
Год издания/переиздания диска: 2018
Жанр: Hip-Hop/Rap
Издатель (лейбл): Republic Records, a division of UMG Recordings, Inc.
Продолжительность: 00:41:37
Наличие сканов в содержимом раздачи: Только обложка альбома
Треклист:
1.Blackway & Black Caviar - What's Up Danger
2.Post Malone & Swae Lee - Sunflower (Spider-Man: Into the Spider-Verse)
3.Jaden Smith - Way Up
4.Nicki Minaj & Anuel AA - Familia (Spider-Man: Into the Spider-Verse) (feat. Bantu)
5.Aminé - Invincible
6.Duckwrth & Shaboozey - Start a Riot
7.Juice WRLD - Hide (feat. Seezyn)
8.Thutmose - Memories
9.Ski Mask the Slump God & Jacquees - Save The Day (feat. Coi Leray & LouGotCash)
10.Beau Young Prince - Let Go
11.Lil Wayne & Ty Dolla $ign - Scared of the Dark (feat. XXXTENTACION)
12.DJ Khalil - Elevate (feat. Denzel Curry, YBN Cordae, SwaVay & Trevor Rich)
13.Vince Staples - Home
Формат файла: FLAC (*.flac)
Тип рипа: tracks
Разрядность: 24/44,1
Формат файла: FLAC
Количество каналов: 2.0

Лог проверки качества

foobar2000 1.4 / Замер динамического диапазона (DR) 1.1.1Дата отчёта: 2018-12-13 18:07:10
--------------------------------------------------------------------------------Анализ: Aminé / Spider-Man: Into the Spider-Verse (Soundtrack From & Inspired by the Motion Picture) (1) Beau Young Prince / Spider-Man: Into the Spider-Verse (Soundtrack From & Inspired by the Motion Picture) (2) Blackway & Black Caviar / Spider-Man: Into the Spider-Verse (Soundtrack From & Inspired by the Motion Picture) (3) DJ Khalil / Spider-Man: Into the Spider-Verse (Soundtrack From & Inspired by the Motion Picture) (4) Duckwrth & Shaboozey / Spider-Man: Into the Spider-Verse (Soundtrack From & Inspired by the Motion Picture) (5) Jaden Smith / Spider-Man: Into the Spider-Verse (Soundtrack From & Inspired by the Motion Picture) (6) Juice WRLD / Spider-Man: Into the Spider-Verse (Soundtrack From & Inspired by the Motion Picture) (7) Lil Wayne & Ty Dolla $ign / Spider-Man: Into the Spider-Verse (Soundtrack From & Inspired by the Motion Picture) (8) Nicki Minaj & Anuel AA / Spider-Man: Into the Spider-Verse (Soundtrack From & Inspired by the Motion Picture) (9) Post Malone & Swae Lee / Spider-Man: Into the Spider-Verse (Soundtrack From & Inspired by the Motion Picture) (10) Ski Mask the Slump God & Jacquees / Spider-Man: Into the Spider-Verse (Soundtrack From & Inspired by the Motion Picture) (11) Thutmose / Spider-Man: Into the Spider-Verse (Soundtrack From & Inspired by the Motion Picture) (12) Vince Staples / Spider-Man: Into the Spider-Verse (Soundtrack From & Inspired by the Motion Picture) (13)--------------------------------------------------------------------------------
DR Пики RMS Продолжительность трека--------------------------------------------------------------------------------DR4 0.00 дБ -5.59 дБ 3:16 05-InvincibleDR7 0.00 дБ -9.13 дБ 2:58 10-Let GoDR4 0.00 дБ -6.88 дБ 3:42 01-What's Up DangerDR6 0.00 дБ -7.52 дБ 3:39 12-Elevate (feat. Denzel Curry, YBN Cordae, SwaVay & Trevor Rich)DR4 0.00 дБ -6.43 дБ 2:51 06-Start a RiotDR3 0.00 дБ -5.10 дБ 2:34 03-Way UpDR4 0.00 дБ -6.88 дБ 3:26 07-Hide (feat. Seezyn)DR5 0.00 дБ -6.74 дБ 3:53 11-Scared of the Dark (feat. XXXTENTACION)DR5 0.00 дБ -7.27 дБ 2:55 04-Familia (Spider-Man: Into the Spider-Verse) (feat. Bantu)DR5 0.00 дБ -7.59 дБ 2:38 02-Sunflower (Spider-Man: Into the Spider-Verse)DR5 0.00 дБ -7.56 дБ 2:59 09-Save The Day (feat. Coi Leray & LouGotCash)DR4 0.00 дБ -6.65 дБ 3:19 08-MemoriesDR4 0.00 дБ -5.23 дБ 3:31 13-Home--------------------------------------------------------------------------------
Количество треков: 13Реальные значения DR: DR5
Частота: 44100 ГцКаналов: 2Разрядность: 24Битрейт: 1582 кбит/сКодек: FLAC================================================================================
Источник (релизер): Tidal
Mastered for Tidal


[chi5o.com]_t_5658952.torrent
Торрент: Зарегистрирован ·  [ 2019-01-05 13:55 ] ·  71ea25ad90238a139e88a79f3c421bd5422158fb

20 KB

Статус: проверено
Скачан: 0 раз
Размер: 481 MB
Оценка: 
(Голосов: 0)
Сказали спасибо: 0  Спасибо
Похожие темы
[Профиль]    [ЛС]
Показать сообщения:    
Ответить на тему

Текущее время: Сегодня 16:52

Часовой пояс: GMT + 7



Вы не можете начинать темы
Вы не можете отвечать на сообщения
Вы не можете редактировать свои сообщения
Вы не можете удалять свои сообщения
Вы не можете голосовать в опросах
Вы не можете прикреплять файлы к сообщениям
Вы можете скачивать файлы


2x02 Ataque a los Titanes | HofoSetup 3.2.1 | office 2019