Гильгамеш / Gilgamesh (Андраш Рашнай / András Rajnai) [1976, Венгрия, фэнтези, фантасмагория, TVRip] Original hun + Sub Rus (1111111...)

Ответить на тему
Статистика раздачи [Обновить пиров]
Размер:  785 MB   |    Зарегистрирован:  13 дней   |    Скачан:  0 раз

Полного источника не было: Никогда

 
   
 
 
 
Автор Сообщение

chi5o.com

Создавать темы 04-Янв-2019 23:22

[Цитировать]

Гильгамеш / Gilgamesh
Страна: Венгрия
Жанр: Фэнтези, фантасмагория
Год выхода: 1976
Продолжительность: 00:50:23
Перевод: Субтитры 1111111...
Субтитры: русские
Оригинальная аудиодорожка: Венгерский
Режиссер: Андраш Рашнай / András Rajnai
В ролях: Иштван Буштор \ István Bujtor, Миклос Толнай \ Miklós Tolnay, Тери Тордай \Teri Tordai
Описание: Венгерский эпос о Гильгамеше. 1976 года. Герой сражается с врагами и обретает смысл жизни. Остальное на скринах.
Доп. информация: IMDB
[url=tracker.php?nm=Andr%C3%A1s%20Rajnai]Другие фильмы режиссера на трекере[/url]
Взято с CG, спасибо dundee80
Сэмпл: http://sendfile.su/1465828
Качество видео: TVRip
Формат файла: AVI
Видео: 704х528, 50.000 FPS, XVID, 2033 kb/s
Аудио: Венгерский, MP3, 128 kb/s, 2 ch, 44.1 kHz
Формат файла субтитров: softsub (SRT)
Доп. информация о субтитрах:

MediaInfo

GeneralComplete name :Gilgamesh (1976).aviFormat : AVIFormat/Info : Audio Video InterleaveFile size : 785 MiBDuration : 50 min 23 sOverall bit rate : 2 178 kb/sWriting application : MEncoder SVN-r33883(20110719-gcc4.5.2)Writing library : MPlayer
VideoID : 0Format : MPEG-4 VisualFormat profile : Advanced Simple@L5Format settings : BVOP2Format settings, BVOP : 2Format settings, QPel : NoFormat settings, GMC : No warppointsFormat settings, Matrix : Default (H.263)Codec ID : XVIDCodec ID/Hint : XviDDuration : 50 min 23 sBit rate : 2 033 kb/sWidth : 704 pixelsHeight : 528 pixelsDisplay aspect ratio : 4:3Original display aspect ratio : 4:3Frame rate : 50.000 FPSColor space : YUVChroma subsampling : 4:2:0Bit depth : 8 bitsScan type : ProgressiveCompression mode : LossyBits/(Pixel*Frame) : 0.109Stream size : 733 MiB (93%)Writing library : XviD 1.2.1 (UTC 2008-12-04)
AudioID : 1Format : MPEG AudioFormat version : Version 1Format profile : Layer 3Format settings : Joint stereo / MS StereoCodec ID : 55Codec ID/Hint : MP3Duration : 50 min 23 sBit rate mode : ConstantBit rate : 128 kb/sChannel(s) : 2 channelsSampling rate : 44.1 kHzCompression mode : LossyDelay relative to video : 20 msStream size : 46.1 MiB (6%)Alignment : Aligned on interleavesInterleave, duration : 26 ms (1.31 video frame)Interleave, preload duration : 522 msWriting library : LAME3.98.4

Скриншот c названием фильма



[chi5o.com]_t_5669420.torrent
Торрент: Зарегистрирован ·  [ 2019-01-04 23:22 ] ·  94a3a1b8c7b923ecf9b9c947af14bcae921bb0cb

16 KB

Статус: проверено
Скачан: 0 раз
Размер: 785 MB
Оценка: 
(Голосов: 0)
Сказали спасибо: 0  Спасибо
Похожие темы
[Профиль]    [ЛС]
Показать сообщения:    
Ответить на тему

Текущее время: Сегодня 12:42

Часовой пояс: GMT + 7



Вы не можете начинать темы
Вы не можете отвечать на сообщения
Вы не можете редактировать свои сообщения
Вы не можете удалять свои сообщения
Вы не можете голосовать в опросах
Вы не можете прикреплять файлы к сообщениям
Вы можете скачивать файлы


Contattaci | 2 in 1 Baby Walker Rocker with Parental handle,Shade,Music,Foot brakes Toys | Nu Kopen