Ранго / Rango (Гор Вербински / Gore Verbinski) [2011, США, Мультфильм, комедия, приключения, семейный, вестерн, WEBRip-AVC] [Theatrical cut / Open Matte] Dub + Original Eng + Sub (rus, eng)

Ответить на тему
Статистика раздачи [Обновить пиров]
Размер:  2.74 GB   |    Зарегистрирован:  18 дней   |    Скачан:  0 раз

Полного источника не было: Никогда

 
   
 
 
 
Автор Сообщение

chi5o.com

Создавать темы 04-Янв-2019 21:17

[Цитировать]

-Ранго / Rango
Театральная версия / Theatrical cut
«От режиссера 'Пиратов карибского моря'»- Страна: США
Жанр: Мультфильм, комедия, приключения, семейный, вестерн
Год выхода: 2011
Продолжительность: 01:47:14-Перевод: Профессиональный (дублированный) Пифагор
Субтитры: русские (Forced, Fullx3), английские (Full)
Оригинальная аудиодорожка: английский
Навигация по главам: есть-Режиссер: Гор Вербински / Gore Verbinski-В ролях: Джонни Депп, Айла Фишер. Эбигейл Бреслин, Нед Битти, Альфред Молина, Билл Найи, Стивен Рут, Гарри Дин Стэнтон, Тимоти Олифант, Рэй Уинстон-Описание: Ранго — хамелеон, который живет в террариуме и считает себя героем, которому, к сожалению, никак не удается проявить свое бесстрашие. Но когда он внезапно оказывается в городке Грязь, у него появляется такая возможность. Ранго провозглашает себя борцом за справедливость и начинает вести себя как шериф на Диком Западе. Он еще не знает, что быть «хорошим парнем» в этих краях не самая завидная участь…-Доп. информация:
- Open Matte версия фильма - большее наполнение кадра по высоте, чем у Blu-ray;
- Театральная версия;
- Аудиодорожки взяты с BD.-Рейтинги и возраст:
-Сэмпл: http://yadi.sk/i/WehcBqKluuUJ2A-Качество видео: WEBRip-AVC WEBRip 1080p
Формат файла: MKV
Видео кодек: H.264 / MPEG-4 AVC
Аудио кодек: AC3 / Dolby Digital
Видео: 1152x648 (16:9), 23.976 fps, ~2754 kbps, 0.154 bit/pixel
Аудио #1: 48 kHz, 6 channels (5.1), ~448 kbps | Dub (Пифагор)
Аудио #2: 48 kHz, 6 channels (5.1), ~448 kbps | Original Eng
Формат файла субтитров: softsub (SRT), вшиты в контейнер-

MediaInfo / LogLog QP (I, P, B frame) 2 pass

raw [info]: 1152x648p 1:1 @ 24000/1001 fps (cfr)
x264 [info]: using SAR=1/1
x264 [info]: using cpu capabilities: MMX2 SSE2Fast SSSE3 SSE4.2 AVX FMA3 BMI2 AVX2
x264 [info]: profile High, level 4.1, 4:2:0, 8-bit
x264 [info]: frame I:1185 Avg QP:17.67 size: 90288
x264 [info]: frame P:47175 Avg QP:21.25 size: 25834
x264 [info]: frame B:105918 Avg QP:23.22 size: 8386

MediaInfo

ОбщееУникальный идентификатор : 212800772678233398535161748479287419564 (0xA017F022AABAB2BD834E74F4729EE2AC)Полное имя : C:\Users\Dmitriy\Desktop\Rango.2011.Theatrical cut.Open Matte.WEBRip-AVC.Dub.mkvФормат файла : MatroskaВерсия формата : Version 4 / Version 2Размер файла : 2,74 ГбайтПродолжительность : 1 ч. 47 м.Общий поток : 3651 Кбит/секДата кодирования : UTC 2019-01-04 10:58:11Программа кодирования : mkvmerge v7.4.0 ('Circles') 64bit built on Dec 12 2014 12:19:56Библиотека кодирования : libebml v1.3.0 + libmatroska v1.4.1
ВидеоИдентификатор : 1Формат файла : AVCФормат файла/Информация : Advanced Video CodecПрофиль формата : High@L4.1Параметр CABAC формата : ДаПараметр ReFrames формата : 11 кадровИдентификатор кодека : V_MPEG4/ISO/AVCПродолжительность : 1 ч. 47 м.Битрейт : 2754 Кбит/секШирина : 1152 пикселяВысота : 648 пикселейСоотношение сторон : 16:9Режим частоты кадров : ПостоянныйЧастота кадров : 23,976 (24000/1001) кадра/секЦветовое пространство : YUVСубдискретизация насыщенности : 4:2:0Битовая глубина : 8 битТип развёртки : ПрогрессивнаяБит/(Пиксели*Кадры) : 0.154Размер потока : 2,06 Гбайт (75%)Библиотека кодирования : x264 core 157 r2935 545de2fНастройки программы : cabac=1 / ref=11 / deblock=1:-3:-3 / analyse=0x3:0x113 / me=umh / subme=11 / psy=1 / psy_rd=1.00:0.00 / mixed_ref=1 / me_range=48 / chroma_me=1 / trellis=2 / 8x8dct=1 / cqm=0 / deadzone=21,11 / fast_pskip=0 / chroma_qp_offset=-2 / threads=6 / lookahead_threads=1 / sliced_threads=0 / nr=0 / decimate=0 / interlaced=0 / bluray_compat=0 / constrained_intra=0 / bframes=14 / b_pyramid=2 / b_adapt=2 / b_bias=0 / direct=3 / weightb=1 / open_gop=0 / weightp=2 / keyint=250 / keyint_min=23 / scenecut=40 / intra_refresh=0 / rc=2pass / mbtree=0 / bitrate=2754 / ratetol=1.0 / qcomp=0.60 / qpmin=0 / qpmax=69 / qpstep=4 / cplxblur=20.0 / qblur=0.5 / ip_ratio=1.40 / pb_ratio=1.30 / aq=1:1.00Default : ДаForced : Нет
Аудио #1Идентификатор : 2Формат файла : AC-3Формат файла/Информация : Audio Coding 3Расширение режима : CM (complete main)Параметр Endianness формата : BigИдентификатор кодека : A_AC3Продолжительность : 1 ч. 47 м.Вид битрейта : ПостоянныйБитрейт : 448 Кбит/секКаналы : 6 каналовРасположение каналов : Front: L C R, Side: L R, LFEЧастота : 48,0 КГцЧастота кадров : 31,250 кадров/сек (1536 spf)Метод сжатия : С потерямиРазмер потока : 344 Мбайт (12%)Заголовок : Dub (Пифагор)Язык : RussianDefault : ДаForced : Нет
Аудио #2Идентификатор : 3Формат файла : AC-3Формат файла/Информация : Audio Coding 3Расширение режима : CM (complete main)Параметр Endianness формата : BigИдентификатор кодека : A_AC3Продолжительность : 1 ч. 47 м.Вид битрейта : ПостоянныйБитрейт : 448 Кбит/секКаналы : 6 каналовРасположение каналов : Front: L C R, Side: L R, LFEЧастота : 48,0 КГцЧастота кадров : 31,250 кадров/сек (1536 spf)Метод сжатия : С потерямиРазмер потока : 344 Мбайт (12%)Заголовок : Original EngЯзык : EnglishDefault : НетForced : Нет
Текст #1Идентификатор : 4Формат файла : UTF-8Идентификатор кодека : S_TEXT/UTF8Идентификатор кодека/Информация : UTF-8 Plain TextПродолжительность : 1 ч. 13 м.Битрейт : 0 бит/секCount of elements : 4Размер потока : 137 байт (0%)Заголовок : ForcedЯзык : RussianDefault : НетForced : Нет
Текст #2Идентификатор : 5Формат файла : UTF-8Идентификатор кодека : S_TEXT/UTF8Идентификатор кодека/Информация : UTF-8 Plain TextПродолжительность : 1 ч. 45 м.Битрейт : 84 бит/секCount of elements : 1232Размер потока : 65,4 Кбайт (0%)Заголовок : Full, BDЯзык : RussianDefault : НетForced : Нет
Текст #3Идентификатор : 6Формат файла : UTF-8Идентификатор кодека : S_TEXT/UTF8Идентификатор кодека/Информация : UTF-8 Plain TextПродолжительность : 1 ч. 40 м.Битрейт : 94 бит/секCount of elements : 1267Размер потока : 69,7 Кбайт (0%)Заголовок : Full, voronineЯзык : RussianDefault : НетForced : Нет
Текст #4Идентификатор : 7Формат файла : UTF-8Идентификатор кодека : S_TEXT/UTF8Идентификатор кодека/Информация : UTF-8 Plain TextПродолжительность : 1 ч. 39 м.Битрейт : 90 бит/секCount of elements : 1066Размер потока : 65,9 Кбайт (0%)Заголовок : Full, GoblinЯзык : RussianDefault : НетForced : Нет
Текст #5Идентификатор : 8Формат файла : UTF-8Идентификатор кодека : S_TEXT/UTF8Идентификатор кодека/Информация : UTF-8 Plain TextПродолжительность : 1 ч. 39 м.Битрейт : 60 бит/секCount of elements : 1221Размер потока : 44,5 Кбайт (0%)Заголовок : FullЯзык : EnglishDefault : НетForced : Нет
Меню00:00:00.000 : :00:00:00.00000:05:25.867 : :00:05:25.86700:10:13.238 : :00:10:13.23800:14:19.108 : :00:14:19.10800:19:03.476 : :00:19:03.47600:25:05.295 : :00:25:05.29500:29:28.892 : :00:29:28.89200:34:40.745 : :00:34:40.74500:37:17.485 : :00:37:17.48500:43:39.951 : :00:43:39.95100:48:36.288 : :00:48:36.28800:53:08.310 : :00:53:08.31001:01:32.981 : :01:01:32.98101:09:50.019 : :01:09:50.01901:15:05.584 : :01:15:05.58401:21:09.615 : :01:21:09.61501:27:00.173 : :01:27:00.17301:31:11.090 : :01:31:11.09001:37:28.551 : :01:37:28.55101:40:55.508 : :01:40:55.508

Скриншот c названием фильма

Источник: Torrentc наполнения кадра

--------WEBRip-AVC OM-----------------BDRip 720p WS--------




[chi5o.com]_t_5669360.torrent
Торрент: Зарегистрирован ·  [ 2019-01-04 21:17 ] ·  04237379726cc6bdfd8601cd344839ae9fdafaed

14 KB

Статус: проверено
Скачан: 0 раз
Размер: 2.74 GB
Оценка: 
(Голосов: 0)
Сказали спасибо: 0  Спасибо
Похожие темы
[Профиль]    [ЛС]
Показать сообщения:    
Ответить на тему

Текущее время: Сегодня 02:31

Часовой пояс: GMT + 7



Вы не можете начинать темы
Вы не можете отвечать на сообщения
Вы не можете редактировать свои сообщения
Вы не можете удалять свои сообщения
Вы не можете голосовать в опросах
Вы не можете прикреплять файлы к сообщениям
Вы можете скачивать файлы


Java Design Patterns | Derek Muller | Голос