Зрительный поиск / Vision Quest (Харольд Беккер / Harold Becker) [1985, США, драма, мелодрама, спорт, HDRip] Sub Rus (Verrucka), Eng + Original Eng

Ответить на тему
Статистика раздачи [Обновить пиров]
Размер:  1.46 GB   |    Зарегистрирован:  13 дней   |    Скачан:  0 раз

Полного источника не было: Никогда

 
   
 
 
 
Автор Сообщение

chi5o.com

Создавать темы 04-Янв-2019 19:12

[Цитировать]

Зрительный поиск / Vision Quest
Страна: США
Жанр: драма, мелодрама, спорт
Год выхода: 1985
Продолжительность: 01:47:15
Перевод: Субтитры - Verrucka
Субтитры: русские, английские
Оригинальная аудиодорожка: английский

Режиссер: Харольд Беккер / Harold Becker
В ролях: Мэттью Модайн, Линда Фиорентино, Майкл Шоффлинг, Ронни Кокс, Гарольд Сильвестр, Чарльз Хэллахан, Дж. К. Куин, Дафна Зунига, Р.Х. Томсон, Гари Каспер, Форест Уитекер, Мадонна
Описание: Деревенский парень, которому недавно исполнилось 18 хочет стать в жизни чем-то большим, чем школьный атлет, и намеревается достигнуть успеха без поддержки родителей и тренера. Его отец сдает комнату девушке-путешественнице, и парень влюбляется в нее.
Сэмпл
Качество видео: HDRip
Формат файла: AVI
Видео: 704x400 (1.76:1), 23.976 fps, XviD build 73 ~1743 kbps avg, 0.26 bit/pixel
Аудио: 48 kHz, AC3 Dolby Digital, 2/0 (L,R) ch, ~192 kbps
Формат файла субтитров: softsub (SRT)

Фрагмент субтитров

520
00:34:47,077 --> 00:34:51,143
Тренер из школы Вашингтона
устраивает собрание рестлеров.
521
00:34:54,823 --> 00:34:56,741
Ты умеешь завязывать
эту штуку?
522
00:34:57,712 --> 00:34:59,335
Могу попробовать.
523
00:34:59,633 --> 00:35:01,618
Я много раз пытался.
524
00:35:07,110 --> 00:35:09,041
Это по поводу стипендии?
525
00:35:09,427 --> 00:35:10,440
Что?
526
00:35:10,977 --> 00:35:12,131
Собрание.
527
00:35:12,131 --> 00:35:14,096
Нет, тренер просто хочет
с нами побеседовать.
528
00:35:18,862 --> 00:35:20,379
Повеселись там, ладно?
529
00:35:21,374 --> 00:35:22,142
Ладно.
530
00:35:28,656 --> 00:35:30,669
Спасибо, что показала мне рисунок.
531
00:36:34,928 --> 00:36:36,336
Привет, Лауден.
532
00:36:36,569 --> 00:36:37,887
Привет, мистер Таннеран.
533
00:36:38,358 --> 00:36:40,174
Почему мне странно
тебя тут видеть?

MediaInfo

GeneralComplete name : H:\Vision.Quest.1985.hdrip_[1.46]_[teko]\Vision.Quest.1985.hdrip_[1.46].aviFormat : AVIFormat/Info : Audio Video InterleaveFile size : 1.46 GiBDuration : 1h 47mnOverall bit rate : 1 945 KbpsWriting application : VirtualDubMod 1.5.10.3 | www.virtualdub-fr.org || (build 2550/release)Writing library : VirtualDubMod build 2550/release
VideoID : 0Format : MPEG-4 VisualFormat profile : Advanced Simple@L5Format settings, BVOP : 2Format settings, QPel : NoFormat settings, GMC : No warppointsFormat settings, Matrix : CustomCodec ID : XVIDCodec ID/Hint : XviDDuration : 1h 47mnBit rate : 1 743 KbpsWidth : 704 pixelsHeight : 400 pixelsDisplay aspect ratio : 16:9Frame rate : 23.976 (23976/1000) fpsColor space : YUVChroma subsampling : 4:2:0Bit depth : 8 bitsScan type : ProgressiveCompression mode : LossyBits/(Pixel*Frame) : 0.258Stream size : 1.31 GiB (90%)Writing library : XviD 73
AudioID : 1Format : AC-3Format/Info : Audio Coding 3Mode extension : CM (complete main)Format settings, Endianness : BigCodec ID : 2000Duration : 1h 47mnBit rate mode : ConstantBit rate : 192 KbpsChannel(s) : 2 channelsChannel positions : Front: L RSampling rate : 48.0 KHzFrame rate : 31.250 fps (1536 spf)Compression mode : LossyStream size : 147 MiB (10%)Alignment : Split accross interleavesInterleave, duration : 42 ms (1.00 video frame)Interleave, preload duratio : 500 ms
:--


[chi5o.com]_t_5669239.torrent
Торрент: Зарегистрирован ·  [ 2019-01-04 19:12 ] ·  333ef9d3b58776b4c3cfb5ed590959adc214cabc

15 KB

Статус: проверено
Скачан: 0 раз
Размер: 1.46 GB
Оценка: 
(Голосов: 0)
Сказали спасибо: 0  Спасибо
Похожие темы
[Профиль]    [ЛС]
Показать сообщения:    
Ответить на тему

Текущее время: Сегодня 13:36

Часовой пояс: GMT + 7



Вы не можете начинать темы
Вы не можете отвечать на сообщения
Вы не можете редактировать свои сообщения
Вы не можете удалять свои сообщения
Вы не можете голосовать в опросах
Вы не можете прикреплять файлы к сообщениям
Вы можете скачивать файлы


InuYasha: The Final Act (Official) | Air Structures (Form + Technique) | Sonic The Hedgehog 4 Episode II