Пчёлка Майя и Кубок мёда / Maya the Bee: The Honey Games (Ноэль Клири, Серджо Делфино, Алекс Стадерманн) [2018, Германия, мультфильм, комедия, приключения, семейный, HDRip] Dub

Ответить на тему
Статистика раздачи [Обновить пиров]
Размер:  1.46 GB   |    Зарегистрирован:  18 дней   |    Скачан:  0 раз

Полного источника не было: Никогда

 
   
 
 
 
Автор Сообщение

chi5o.com

Создавать темы 04-Янв-2019 10:42

[Цитировать]

Пчёлка Майя и Кубок мёда / Maya the Bee: The Honey Games- Год выхода: 2018
Выпущено: Германия, Австралия / Studio 100 Media
Жанр: мультфильм, комедия, приключения, семейный
Продолжительность: 01:24:48
Перевод: Профессиональный (полное дублирование)
Субтитры: нет-Режиссер:
Ноэль Клири, Серджо Делфино, Алекс Стадерманн-В ролях:
Коко Джек Гиллис, Бенсон Джек Энтони, Ричард Роксбург, Джастин Кларк, Марни МакКуин, Линда Нго, Кэм Ральф, Джордан Хэа, Сэм Хафт, Питер МакАллум-О фильме:
Пчёлка Майя с нетерпением ждёт начала спортивных соревнований между ульями за Кубок мёда. Однако Императрица не только не допускает её улей до игр, но и требует, чтобы они отдали половину своего урожая мёда для питания других спортсменов. Такое положение дел не устраивает пчёлку, и она летит к Императрице, чтобы добиться включения её команды в список участников.-
| | IMDB | КиноПоиск | Сэмпл |-Качество: HDRip [MayatheBeeTheHoneyGamesBDRip1080p]
Формат файла: AVI
Видео: 704x384 (1.83:1), 23.976 fps, XviD build 67 ~2063 kbps avg, 0.32 bit/pixel
Аудио: 48 kHz, AC3 Dolby Digital, 3/2 (L,C,R,l,r) + LFE ch, ~384 kbps avg - iTunes Russia-
- MediaInfo">

Скриншоты - MediaInfo

Общее
Полное имя                               : D:\P4elka_Maya_i_Kubok_meda_2018_HDRip_iT_by_Dalemake.avi
Формат файла                                   : AVI
Формат файла/Информация                        : Audio Video Interleave
Размер файла                             : 1,46 Гбайт
Продолжительность                        : 1 ч. 24 м.
Общий поток                              : 2457 Кбит/сек
Программа кодирования                    : VirtualDubMod 1.5.10.3 | www.virtualdub-fr.org || (build 2550/release)
Библиотека кодирования                   : VirtualDubMod build 2550/release
Видео
Идентификатор                            : 0
Формат файла                                   : MPEG-4 Visual
Профиль формата                          : Advanced Simple@L5
Параметр BVOP формата                    : 1
Параметр QPel формата                    : Нет
Параметр GMC формата                     : Без точки перехода
Параметр матрицы формата                 : Выборочная
Идентификатор кодека                     : XVID
Идентификатор кодека/Подсказка           : XviD
Продолжительность                        : 1 ч. 24 м.
Битрейт                                  : 2064 Кбит/сек
Ширина                                   : 704 пикселя
Высота                                   : 384 пикселя
Соотношение сторон                       : 1,85:1
Частота кадров                           : 23,976 кадра/сек
Цветовое пространство                    : YUV
Субдискретизация насыщенности            : 4:2:0
Битовая глубина                          : 8 бит
Тип развёртки                            : Прогрессивная
Метод сжатия                             : С потерями
Бит/(Пиксели*Кадры)                      : 0.318
Размер потока                            : 1,22 Гбайт (84%)
Библиотека кодирования                   : XviD 67
Аудио
Идентификатор                            : 1
Формат файла                                   : AC-3
Формат файла/Информация                        : Audio Coding 3
Расширение режима                        : CM (complete main)
Параметр Endianness формата              : Big
Идентификатор кодека                     : 2000
Продолжительность                        : 1 ч. 24 м.
Вид битрейта                             : Постоянный
Битрейт                                  : 384 Кбит/сек
Каналы                                   : 6 каналов
Расположение каналов                     : Front: L C R, Side: L R, LFE
Частота                                  : 48,0 КГц
Битовая глубина                          : 16 бит
Метод сжатия                             : С потерями
Размер потока                            : 233 Мбайт (16%)
Выравнивание                             : Разделение по промежуткам
Продолжительность промежутка             : 42  мс. (1,00 видеокадр)
Время предзагрузки промежутка            : 500  мс.
-


[chi5o.com]_t_5606417.torrent
Торрент: Зарегистрирован ·  [ 2019-01-04 10:29 ] ·  4415f99d637e9b40733c6c4e33ee9306bcc2e73d

15 KB

Статус: проверено
Скачан: 0 раз
Размер: 1.46 GB
Оценка: 
(Голосов: 0)
Сказали спасибо: 0  Спасибо
Похожие темы
[Профиль]    [ЛС]
Показать сообщения:    
Ответить на тему

Текущее время: Сегодня 02:07

Часовой пояс: GMT + 7



Вы не можете начинать темы
Вы не можете отвечать на сообщения
Вы не можете редактировать свои сообщения
Вы не можете удалять свои сообщения
Вы не можете голосовать в опросах
Вы не можете прикреплять файлы к сообщениям
Вы можете скачивать файлы


Most Watched | Spartacus Sangue e Sabbia Blood And Sand Serie TV Streaming Download | Burning Down t season 10 episode 15