Тайна магазина игрушек / Tea Pets (Гэри Ван / Gary Wang) [2017, Китай, мультфильм, семейный, фэнтези, приключения, WEB-DLRip] [Локализованный видеоряд] Dub (iTunes)

Ответить на тему
Статистика раздачи [Обновить пиров]
Размер:  1.46 GB   |    Зарегистрирован:  18 дней   |    Скачан:  0 раз

Полного источника не было: Никогда

 
   
 
 
 
Автор Сообщение

chi5o.com

Создавать темы 04-Янв-2019 10:41

[Цитировать]

Тайна магазина игрушек / Tea Pets
Страна: Китай
Жанр: мультфильм, семейный, фэнтези, приключения
Год выхода: 2017
Продолжительность: 01:37:33-Перевод: Профессиональный (дублированный) | iTunes
Субтитры: нет
Оригинальная аудиодорожка: нет-Режиссер: Гэри Ван / Gary Wang-В ролях: Ши Лэй, Юань Цзэюй, Цзи Гуаньлинь, Хун Хуан, Чжан Лэй, Янь Яньшэн, Ивонн Чжао-Описание: Робот Таймбот попадает на землю, после того, как его космический корабль потерпел крушение. Он попадает в магазин игрушек, где его обитатели, жили своей тихой и спокойной жизнью, играли, а по ночам пугали друг друга историями о некоем «Правителе Подземелья», который с помощью своих верных помощников, крыс Шмыгуна и Пискуна, похищает их друзей из соседних магазинов. В один из дней, пропадает их подружка Мэй, и игрушки, во главе с Таймботом убегают из магазина и отправляются в город на ее поиски. С этого и начинаются интересные, полные юмора и приключений путешествия маленьких героев под недоуменные взгляды городских жителей.-Качество видео: WEB-DLRip
Формат файла: AVI
Видео: 720x304 (2.37:1), 24.000 fps, XviD build 73 ~1744 kbps avg, 0.33 bit/pixel
Аудио: 48 kHz, AC3 Dolby Digital, 3/2 (L,C,R,l,r) + LFE ch, ~384 kbps-

Сэмпл-

MediaInfo

Формат файла                                   : AVI
Формат файла/Информация                        : Audio Video Interleave
Размер файла                             : 1,46 Гбайт
Продолжительность                        : 1 ч. 37 м.
Общий поток                              : 2138 Кбит/сек
Программа кодирования                    : VirtualDubMod 1.5.10.3 | www.virtualdub-fr.org || (build 2550/release)
Библиотека кодирования                   : VirtualDubMod build 2550/release
Видео
Идентификатор                            : 0
Формат файла                                   : MPEG-4 Visual
Профиль формата                          : Advanced Simple@L5
Настройки формата                        : BVOP1 / Custom Matrix
Параметр BVOP формата                    : 1
Параметр QPel формата                    : Нет
Параметр GMC формата                     : Без точки перехода
Параметр матрицы формата                 : Выборочная
Идентификатор кодека                     : XVID
Идентификатор кодека/Подсказка           : XviD
Продолжительность                        : 1 ч. 37 м.
Битрейт                                  : 1745 Кбит/сек
Ширина                                   : 720 пикселей
Высота                                   : 304 пикселя
Соотношение сторон                       : 2,35:1
Частота кадров                           : 24,000 кадра/сек
Цветовое пространство                    : YUV
Субдискретизация насыщенности            : 4:2:0
Битовая глубина                          : 8 бит
Тип развёртки                            : Прогрессивная
Метод сжатия                             : С потерями
Бит/(Пиксели*Кадры)                      : 0.332
Размер потока                            : 1,19 Гбайт (82%)
Библиотека кодирования                   : XviD 73
Аудио
Идентификатор                            : 1
Формат файла                                   : AC-3
Формат файла/Информация                        : Audio Coding 3
Коммерческое название                    : Dolby Digital
Идентификатор кодека                     : 2000
Продолжительность                        : 1 ч. 37 м.
Вид битрейта                             : Постоянный
Битрейт                                  : 384 Кбит/сек
Каналы                                   : 6 каналов
Channel layout                           : L R C LFE Ls Rs
Частота                                  : 48,0 КГц
Частота кадров                           : 31,250 кадров/сек (1536 SPF)
Битовая глубина                          : 16 бит
Метод сжатия                             : С потерями
Размер потока                            : 268 Мбайт (18%)
Выравнивание                             : Разделение по промежуткам
Продолжительность промежутка             : 42  мс. (1,00 видеокадр)
Время предзагрузки промежутка            : 500  мс.
ServiceKind/String                       : Complete Main

Скриншоты




[chi5o.com]_t_5647540.torrent
Торрент: Зарегистрирован ·  [ 2019-01-04 10:29 ] ·  708594d57ccc8597a1f8837072e45eee4a1f72f7

15 KB

Статус: проверено
Скачан: 0 раз
Размер: 1.46 GB
Оценка: 
(Голосов: 0)
Сказали спасибо: 0  Спасибо
Похожие темы
[Профиль]    [ЛС]
Показать сообщения:    
Ответить на тему

Текущее время: Сегодня 02:01

Часовой пояс: GMT + 7



Вы не можете начинать темы
Вы не можете отвечать на сообщения
Вы не можете редактировать свои сообщения
Вы не можете удалять свои сообщения
Вы не можете голосовать в опросах
Вы не можете прикреплять файлы к сообщениям
Вы можете скачивать файлы


Bàn học sinh Xuân Hòa BHS-05-00, học sinh cấp II cấp III | Papa Has a Rol season 14 episode 02 | [www Movcr com] - Jurassic World Fallen Kingdom (2018) English HDCAM - 720p - x264 - 2 2GB [MOVCR] (1) 16 минут